Welcome Guest ( Log In | Register )

Объявления

* gmail.com упорно продолжает считать почту с нас "unsolicited" и отбивает в том числе и письма активации, поэтому просьба использовать альтернативные почтовые ящики.
------------
* gmail.com continues reject all mail from us as "unsolicited" (activation mails too) therefore please use alternate mail servers.
 
Reply to this topicStart new topic
> Volcano - Godspeed (2020), Power/Thrash Metal (D)
post Mar 23 2024, 13:20:09
Post #1

Два Литра
**
Group: Завсегдатай
Posts: 114
Releases: 16
On Forums: 15 years 5 months
Thanks: 258 time(s)
Russian Federation


(IMG:https://metalarea.org/images/audiocovers/2024_Mar/acov_tid394400_thumb.jpg)

*Artist: Volcano
*Album: Godspeed
*Year: 2020
*Genre: Power/Thrash Metal
*Country: Japan (IMG:https://metalarea.org/forum/style_images/flags/Japan.png)
*Format: AAC@VBR288kbps
*Size: 94MB

Tracklist:
01. Wriggle / Eclosion 1:53
02. Salvage Sun 3:53
03. I Decide Who I Am 4:37
04. D.R. 4:24
05. Get Wild 5:18
06. Into The Flame 3:34
07. Angel Son 4:56
08. Lust In Peace 3:25
09. Breaking, Saving, Killing, 4:44
10. Raise Your Fist 4:12
11. Grief 5:17
******************************
Total playing time: 46:13

Preview 1

Extended info


Technical info
(IMG:https://metalarea.org/images/spectrogram/2024_Mar/f723ff3e42e548fb894aa9cabb62433f.png)
Input File: 01. Wriggle - Eclosion.wav
Channels : 2
Sample Rate : 44100
Precision : 16-bit
Duration : 00:00:38.97 = 1718361 samples = 2922.38 CDDA sectors
File Size : 6.87M
Bit Rate : 1.41M
Sample Encoding: 16-bit Signed Integer PCM



Register


Go to the top of the page
  Insert nick Quick quote
+Quote Post

Reply to this topicStart new topic
2 User(s) are reading this topic (2 Guests and 0 Anonymous Users)
0 Members:

 



- Lo-Fi Version Support form
Copyrights and abuse reports form
Time is now: 20th June 2024 - 16:29:59