Welcome Guest ( Log In | Register )

Объявления

* gmail.com упорно продолжает считать почту с нас "unsolicited" и отбивает в том числе и письма активации, поэтому просьба использовать альтернативные почтовые ящики.
------------
* gmail.com continues reject all mail from us as "unsolicited" (activation mails too) therefore please use alternate mail servers.
> Sepulchral Whore - The Return From A Sepulchral Rest (2024), Death Metal (D5)
post Mar 25 2024, 20:41:07
Post #1

Правь статус, 616
**************
Group: Металариец
Posts: 10,852
Releases: 8838
From: 55°35’N 38°08’E
On Forums: 15 years 11 months
Thanks: 157290 time(s)
Russian Federation


(IMG:https://metalarea.org/images/audiocovers/2024_Mar/acov_tid394513_thumb.jpg)

*Artist: Sepulchral Whore
*Album: The Return From A Sepulchral Rest
*Year: 2024
*Genre: Death Metal
*Country: Brazil (IMG:https://metalarea.org/forum/style_images/flags/Brazil.png)
*Format: mp3@CBR320kbps
*Size: 98MB

Tracklist:
1.From Rest to March 01:28
2.Schizophrenic Killer 04:27
3....From The Utterly Perished 04:07
4.Deadly Infection 03:55
5.Dimness 03:31
6.Purgatorial Holes 03:38
7.Whore From Sepulcher 05:17
8.A Poem of Death 03:40
9.Putrefaction After Death 08:09
******************************
Total playing time: 38:12



(IMG:https://metalarea.org/images/youtube.png)

Technical info
(IMG:https://metalarea.org/images/spectrogram/2024_Mar/d793f361e0c81bc9058cdf425dc49f57.png)
Input File: 02 Schizophrenic Killer.mp3
Channels : 2
Sample Rate : 44100
Precision : 16-bit
Duration : 00:04:27.83 = 11811083 samples = 20086.9 CDDA sectors
File Size : 11.0M
Bit Rate : 330k
Sample Encoding: MPEG audio (layer I, II or III)
Comments :
Title=Schizophrenic Killer
Artist=Sepulchral Whore
Album=The Return From a Sepulchral Rest
Tracknumber=2
Year=2024
Genre=Death Metal



Register


Go to the top of the page
  Insert nick Quick quote
+Quote Post
 
Start new topic
Replies (1 - 4)
post Mar 27 2024, 17:07:23
Post #2

⏸⏹/⏏ ⏪⏩◀⏺
*******
Group: Металариец
Posts: 745
Releases: 2
From: Уругвай ёпта.
On Forums: 17 years 4 months
Thanks: 224 time(s)
Uruguay


Хороши.


Thanks:
Go to the top of the page
  Insert nick Quick quote
+Quote Post
post Mar 28 2024, 04:43:05
Post #3

кручу наждак
**************
Group: Металариец
Posts: 6,591
Releases: 111
From: Самара
On Forums: 14 years 1 month
Thanks: 5148 time(s)
Russian Federation


Очень хороши.


Thanks:
(1) Occultas,
Go to the top of the page
  Insert nick Quick quote
+Quote Post
post Mar 31 2024, 11:30:50
Post #4

Шесть Литров
******
Group: Металариец
Posts: 659
Releases: 4
From: Екатеринбург
On Forums: 14 years 6 months
Thanks: 150 time(s)
Russian Federation


lossless please
Go to the top of the page
  Insert nick Quick quote
+Quote Post
post Jun 11 2024, 12:31:52
Post #5

Маньяк
**********
Group: Металариец
Posts: 1,301
Releases: 0
From: Isla de Margarita, Venezuela
On Forums: 5 years 5 months
Thanks: 402 time(s)
Venezuela


Good Deathrash (brazilian style)


Thanks:
(1) goatkvlt,
Go to the top of the page
  Insert nick Quick quote
+Quote Post

Reply to this topicStart new topic
2 User(s) are reading this topic (2 Guests and 0 Anonymous Users)
0 Members:

 



- Lo-Fi Version Support form
Copyrights and abuse reports form
Time is now: 23rd June 2024 - 02:46:13