Welcome Guest ( Log In | Register )

Объявления

* gmail.com упорно продолжает считать почту с нас "unsolicited" и отбивает в том числе и письма активации, поэтому просьба использовать альтернативные почтовые ящики.
------------
* gmail.com continues reject all mail from us as "unsolicited" (activation mails too) therefore please use alternate mail servers.
> Horrifying - Dreadful Parasomnia (2024), Death Metal (D4)
post Mar 27 2024, 21:39:11
Post #1

Правь статус, ####!111
**************
Group: Металариец
Posts: 36,401
Releases: 27141
From: Г.Харьков
On Forums: 12 years 2 months
Thanks: 591171 time(s)
Ukraine


(IMG:https://metalarea.org/images/audiocovers/2024_Mar/acov_tid394575_thumb.jpg)

*Artist: Horrifying
*Album: Dreadful Parasomnia
*Year: 2024
*Genre: Death Metal
*Country: Chile (IMG:https://metalarea.org/forum/style_images/flags/Chile.png)
*Format: mp3@CBR320kbps
*Size: 87MB

Tracklist:
1. Sinister Chaotic Visions 05:20
2. Dreadful Parasomnia 05:12
3. Kathartic Trance 03:34
4. Execrable Souls 03:09
5. Wild Human Fragility 06:02
6. Pertrifying Hallucinations 05:06
7. Crawling into Mental Obliteration 05:52
8. Fading in Abhorrence 02:31
******************************
Total playing time: 36:46



Extended info
Nico Miranda Vocals, Guitars
Gravelord Bass
Putrid Body Drums
Raúl A. Guitars (lead)


Technical info
(IMG:https://metalarea.org/images/spectrogram/2024_Mar/1d279d4fc01987a3101dfcb0b75e97c6.png)
Input File: Horrifying - Dreadful Parasomnia - 07. Crawling into Mental Obliteration.mp3
Channels : 2
Sample Rate : 44100
Precision : 16-bit
Duration : 00:05:52.70 = 15554114 samples = 26452.6 CDDA sectors
File Size : 14.3M
Bit Rate : 324k
Sample Encoding: MPEG audio (layer I, II or III)
Comments :
Title=Crawling into Mental Obliteration
Artist=Horrifying
Album=Dreadful Parasomnia
Tracknumber=7
Year=2024
Genre=Metal



Register


Go to the top of the page
  Insert nick Quick quote
+Quote Post
 
Start new topic
Replies (1 - 5)
post Mar 29 2024, 21:34:43
Post #2

Добрейшей души Мегаманьяк
**************
Group: Металариец
Posts: 2,373
Releases: 0
From: Bashkortostan, Таптыҡ
On Forums: 16 years 5 months
Thanks: 1140 time(s)
Russian Federation


Весьма неплохой death metal
Go to the top of the page
  Insert nick Quick quote
+Quote Post
post Apr 5 2024, 09:56:31
Post #3

Девять Литров
*********
Group: Металариец
Posts: 932
Releases: 0
From: Vilnius
On Forums: 17 years 4 months
Thanks: 384 time(s)
Lithuania


Соглашусь-вполне достойная работа
Go to the top of the page
  Insert nick Quick quote
+Quote Post
post Apr 17 2024, 07:18:59
Post #4

кручу наждак
**************
Group: Металариец
Posts: 6,623
Releases: 111
From: Самара
On Forums: 14 years 2 months
Thanks: 5172 time(s)
Russian Federation


Убойная старошкольная дэзяра. Если бы ещё вокал был повыразительней, или хотя бы не так сильно задвинут на зады, был бы стопроцентный кандидат в топ года.
Go to the top of the page
  Insert nick Quick quote
+Quote Post
post May 17 2024, 18:56:58
Post #5

antithesis
**************
Group: Металариец
Posts: 4,206
Releases: 36
From: VRN
On Forums: 14 years 1 month
Thanks: 2733 time(s)
Russian Federation


Бульдозерный звук; приглушенный в миксе, сочный гроул и мощный башкотряс наряду с головокружительными соляками. (IMG:style_emoticons/default/25.gif)
Go to the top of the page
  Insert nick Quick quote
+Quote Post
post Jun 11 2024, 08:20:39
Post #6

Маньяк
**********
Group: Металариец
Posts: 1,336
Releases: 0
From: Isla de Margarita, Venezuela
On Forums: 5 years 6 months
Thanks: 418 time(s)
Venezuela


Very very good album!!!!!!!!!!!!! (IMG:style_emoticons/default/20.gif)

It reminded me of the best time of Morbid Angel

This will be in my Top 10 DM...
Go to the top of the page
  Insert nick Quick quote
+Quote Post

Reply to this topicStart new topic
1 User(s) are reading this topic (1 Guests and 0 Anonymous Users)
0 Members:

 



- Lo-Fi Version Support form
Copyrights and abuse reports form
Time is now: 15th July 2024 - 10:23:30