Welcome Guest ( Log In | Register )

Объявления

* gmail.com упорно продолжает считать почту с нас "unsolicited" и отбивает в том числе и письма активации, поэтому просьба использовать альтернативные почтовые ящики.
------------
* gmail.com continues reject all mail from us as "unsolicited" (activation mails too) therefore please use alternate mail servers.

> Releases Upload / Добавление релизов

Добавить релиз тут / Click here to add release
Рекомендованные обменники / Recommended file shares

> Leaving - Liminal (2024), Doomgaze/Post-Metal
post Mar 28 2024, 18:57:57
Post #1

####!111
**************
Group: Металариец
Posts: 4,766
Releases: 146
From: The Mountain Of DOOM
On Forums: 16 years 7 months
Thanks: 7023 time(s)
Russian Federation


(IMG:https://metalarea.org/images/audiocovers/2024_Mar/acov_tid394631_thumb.jpg)

*Artist: Leaving
*Album: Liminal
*Year: 2024
*Genre: Doomgaze/Post-Metal
*Country: United States (IMG:https://metalarea.org/forum/style_images/flags/United%20States.png)
*Format: mp3@CBR320kbps
*Size: 75MB

Tracklist:
1. Slow Motion Collapse 06:23
2. Broken Flame 07:45
3. I'm Just Resting My Eyes 01:26
4. Downturn 05:06
5. Hollow Ache 04:52
6. Liminal 06:35
******************************
Total playing time: 32:07


(IMG:https://metalarea.org/images/youtube.png)
(IMG:https://metalarea.org/images/youtube.png)

Extended info
For fans of The Angelic Process

include members of Noothgrush, Amber Asylum, Graves at Sea, Lycus, and Funerary





Technical info
(IMG:https://metalarea.org/images/spectrogram/2024_Mar/9306e18abb5c980d5f689acd3e28e01a.png)
Input File: 03 I'm Just Resting My Eyes.mp3
Channels : 2
Sample Rate : 44100
Precision : 16-bit
Duration : 00:01:26.26 = 3804242 samples = 6469.8 CDDA sectors
File Size : 3.55M
Bit Rate : 329k
Sample Encoding: MPEG audio (layer I, II or III)
Comments :
Title=I'm Just Resting My Eyes
Artist=Leaving
Album=Liminal
Tracknumber=3
Year=2024
Genre=Shoegaze



Register


This post has been edited by Un4given: Apr 2 2024, 18:49:59


Go to the top of the page
  Insert nick Quick quote
+Quote Post
 
Start new topic
Replies (1 - 1)
post Apr 2 2024, 18:39:44
Post #2

хаос и порядок
******
Group: Металариец
Posts: 559
Releases: 0
From: Запорожье
On Forums: 14 years 3 weeks
Thanks: 305 time(s)
Ukraine


Кайфовый альбом, нетипично внятно для шугейза звучат ударка и бас.
https://www.youtube.com/watch?v=ehgadG5WrEQ
Go to the top of the page
  Insert nick Quick quote
+Quote Post

Reply to this topicStart new topic
1 User(s) are reading this topic (1 Guests and 0 Anonymous Users)
0 Members:

 



- Lo-Fi Version Support form
Copyrights and abuse reports form
Time is now: 18th May 2024 - 01:18:49