Welcome Guest ( Log In | Register )

Объявления

* gmail.com упорно продолжает считать почту с нас "unsolicited" и отбивает в том числе и письма активации, поэтому просьба использовать альтернативные почтовые ящики.
------------
* gmail.com continues reject all mail from us as "unsolicited" (activation mails too) therefore please use alternate mail servers.

> Releases Upload / Добавление релизов

Добавить релиз тут / Click here to add release
Рекомендованные обменники / Recommended file shares

> Urkara - Urkara I (2024), Melodic Black/Death Metal
post Mar 28 2024, 22:25:14
Post #1

Правь статус, ####!111
**************
Group: Металариец
Posts: 35,884
Releases: 26737
From: Г.Харьков
On Forums: 12 years 1 week
Thanks: 579390 time(s)
Ukraine


(IMG:https://metalarea.org/images/audiocovers/2024_Mar/acov_tid394644_thumb.jpg)

*Artist: Urkara
*Album: Urkara I
*Year: 2024
*Genre: Melodic Black/Death Metal
*Country: Spain (IMG:https://metalarea.org/forum/style_images/flags/Spain.png)
*Format: mp3@CBR320kbps
*Size: 167MB

Tracklist:
01. Aukera 37:17
02. The Flame 05:17
03. Iluna 05:17
04. Lainoa 05:17
05. Argi Gorriak 05:17
06. Gurtza 05:17
07. Sufrimenduaren Ohiartzuna 05:17
08. Lurpean 03:57
******************************
Total playing time: 1:12:56


(IMG:https://metalarea.org/images/youtube.png)


Extended info
Iñigo Vinara Bass (2022-present)
Mikel Uribe-Etxeberria Guitars (2022-present)
Luis Patiño Vocals, Guitars (2022-present)
Egoitz Aldaia Drums (2024-present)


Technical info
(IMG:https://metalarea.org/images/spectrogram/2024_Mar/b425b5628ccbf093b42d28805f2f2c1e.png)
Input File: 07 - Sufrimenduaren ohiartzuna.mp3
Channels : 2
Sample Rate : 44100
Precision : 16-bit
Duration : 00:05:17.09 = 13983713 samples = 23781.8 CDDA sectors
File Size : 12.8M
Bit Rate : 323k
Sample Encoding: MPEG audio (layer I, II or III)
Comments :
Title=Sufrimenduaren ohiartzuna
Artist=URKARA
Album=URKARA I
Tracknumber=7
Year=2024



Register


Go to the top of the page
  Insert nick Quick quote
+Quote Post
 
Start new topic
Replies (1 - 3)
post Mar 29 2024, 07:48:28
Post #2

MDM-Thrash Metal
**************
Group: Металариец
Posts: 12,438
Releases: 1736
From: Одесса
On Forums: 16 years 9 months
Thanks: 40395 time(s)
Ukraine


Внезапно приятно удивили и порадовали гишпанцы, выдав весьма симпатичный материал приличного уровня.
Go to the top of the page
  Insert nick Quick quote
+Quote Post
post Mar 30 2024, 18:04:01
Post #3

Common dweller of hell
**************
Group: Металариец
Posts: 5,390
Releases: 12
From: Dnipro
On Forums: 15 years 10 months
Thanks: 2190 time(s)
Ukraine


Достаточно не плохая Урка(IMG:style_emoticons/default/20.gif)
Go to the top of the page
  Insert nick Quick quote
+Quote Post
post Apr 1 2024, 20:04:23
Post #4

i listen to black metal
**************
Group: Металариец
Posts: 4,090
Releases: 150
From: Москва
On Forums: 17 years 4 months
Thanks: 2629 time(s)
Russian Federation


первая и последняя песни неправильны по времени)))))
Go to the top of the page
  Insert nick Quick quote
+Quote Post

Reply to this topicStart new topic
1 User(s) are reading this topic (1 Guests and 0 Anonymous Users)
0 Members:

 



- Lo-Fi Version Support form
Copyrights and abuse reports form
Time is now: 18th May 2024 - 02:31:31