Welcome Guest ( Log In | Register )

Объявления

* gmail.com упорно продолжает считать почту с нас "unsolicited" и отбивает в том числе и письма активации, поэтому просьба использовать альтернативные почтовые ящики.
------------
* gmail.com continues reject all mail from us as "unsolicited" (activation mails too) therefore please use alternate mail servers.

> И неформату есть предел.

Рэп/хип-хоп/шансон/поп удаляются. Для них есть свои порталы.

> Sum 41 - Heaven :x: Hell (2024), Punk Rock
post Mar 30 2024, 09:47:09
Post #1
BAN
Banned till
Jun 13 2024, 13:51:31



(IMG:https://metalarea.org/images/audiocovers/2024_Mar/acov_tid394745_thumb.jpg)

*Artist: Sum 41
*Album: Heaven :x: Hell
*Year: 2024
*Genre: Punk Rock
*Country: Canada (IMG:https://metalarea.org/forum/style_images/flags/Canada.png)
*Format: mp3@CBR320kbps
*Size: 126MB

Tracklist:
1. Waiting On a Twist of Fate 02:46
2. Landmines 02:55
3. I Can't Wait 02:05
4. Time Won't Wait 02:30
5. Future Primitive 02:12
6. Dopamine 03:06
7. Not Quite Myself 02:54
8. Bad Mistake 03:03
9. Johnny Libertine 01:35
10. Radio Silence 03:23
11. Preparasi a Salire 01:08
12. Rise Up 03:16
13. Stranger In These Times 02:57
14. I Don't Need Anyone 03:10
15. Over the Edge 03:09
16. House of Liars 03:06
17. You Wanted War 03:32
18. Paint It Black 02:42
19. It's All Me 02:18
20. How the End Begins 03:16
******************************
Total playing time: 55:03

Technical info
(IMG:https://metalarea.org/images/spectrogram/2024_Mar/48dc8c350d814794257e5301773db37e.png)
Input File: 09 Johnny Libertine.mp3
Channels : 2
Sample Rate : 44100
Precision : 16-bit
Duration : 00:01:35.54 = 4213226 samples = 7165.35 CDDA sectors
File Size : 3.86M
Bit Rate : 323k
Sample Encoding: MPEG audio (layer I, II or III)
Comments :
Title=Johnny Libertine
Artist=Sum 41
Album=Heaven :x: Hell
Tracknumber=9
Year=2024
Genre=Punk-Rock / Pop-Punk
Discnumber=1



Register


Go to the top of the page
  Insert nick Quick quote
+Quote Post
 
Start new topic
Replies (1 - 2)
post Mar 30 2024, 10:13:31
Post #2
BAN
Banned till
Jun 13 2024, 13:51:31



На разок неплохо
Подзарядица энергией панк рока!
Go to the top of the page
  Insert nick Quick quote
+Quote Post
post May 25 2024, 11:31:37
Post #3

Маньяк
**********
Group: Металариец
Posts: 1,153
Releases: 0
On Forums: 13 years 1 month
Thanks: 571 time(s)
Unknown


The link is dead. Could we get a reupload please?
Go to the top of the page
  Insert nick Quick quote
+Quote Post

Reply to this topicStart new topic
1 User(s) are reading this topic (1 Guests and 0 Anonymous Users)
0 Members:

 



- Lo-Fi Version Support form
Copyrights and abuse reports form
Time is now: 13th June 2024 - 09:35:41