Welcome Guest ( Log In | Register )

Объявления

* gmail.com упорно продолжает считать почту с нас "unsolicited" и отбивает в том числе и письма активации, поэтому просьба использовать альтернативные почтовые ящики.
------------
* gmail.com continues reject all mail from us as "unsolicited" (activation mails too) therefore please use alternate mail servers.

> Releases Upload / Добавление релизов

Добавить релиз тут / Click here to add release
Рекомендованные обменники / Recommended file shares

> Ødelegger - Where Dark Spirits Dwell (2018), Raw Black Metal
post Mar 30 2024, 14:20:48
Post #1

funeral doom fan
Group Icon
Group: S-moderation team
Posts: 5,881
Releases: 3524
From: Ростов-на-Дону
On Forums: 18 years 5 months
Thanks: 64792 time(s)
Russian Federation


(IMG:https://metalarea.org/images/audiocovers/2024_Mar/acov_tid394805_thumb.jpg)

*Artist: Ødelegger
*Album: Where Dark Spirits Dwell
*Year: 2018
*Genre: Raw Black Metal
*Country: Germany (IMG:https://metalarea.org/forum/style_images/flags/Germany.png)
*Format: mp3@CBR320kbps
*Size: 97MB

Tracklist:
1. Animosity 01:35
2. Instinct 02:17
3. Animal 02:53
4. Circle of Oaks 01:14
5. Where Dark Spirits Dwell 02:54
6. Lost in Time and Memories 03:58
7. The Dark Tide 01:26
8. Under the Bloodred Sky 03:22
9. Knife in My Hand 02:54
10. Entering the Realm of Madness 01:58
11. Dressed in White 01:04
12. Age of Steel 02:32
13. Heaven Ablaze 02:19
14. Covered by Snow and Ice 03:16
15. From a World Beyond 02:41
16. Depravation 02:44
17. As the Forest Whispers 00:58
18. Eclipse 02:03
******************************
Total playing time: 42:08

(IMG:https://metalarea.org/images/youtube.png)

Extended info
FLAC-rip

No amplification was used on the recording.


Technical info
(IMG:https://metalarea.org/images/spectrogram/2024_Mar/6b2dca8b8ac3dd32113843824bd06f38.png)
Input File: 03 - Animal.mp3
Channels : 2
Sample Rate : 44100
Precision : 16-bit
Duration : 00:02:53.78 = 7663654 samples = 13033.4 CDDA sectors
File Size : 6.95M
Bit Rate : 320k
Sample Encoding: MPEG audio (layer I, II or III)
Comments :
Title=Animal
Artist=Ødelegger
Album=Where Dark Spirits Dwell
Tracknumber=3
Year=2019
Genre=Black Metal
Discnumber=1



Register


Go to the top of the page
  Insert nick Quick quote
+Quote Post
 
Start new topic
Replies (1 - 1)
post Apr 2 2024, 17:51:08
Post #2

Четыре Литра
****
Group: Металариец
Posts: 374
Releases: 0
On Forums: 14 years 5 months
Thanks: 145 time(s)
Russian Federation


Хороший примитивный Raw BM. Товарищ из Absurd, Bilskirnir.
Go to the top of the page
  Insert nick Quick quote
+Quote Post

Reply to this topicStart new topic
1 User(s) are reading this topic (1 Guests and 0 Anonymous Users)
0 Members:

 



- Lo-Fi Version Support form
Copyrights and abuse reports form
Time is now: 29th May 2024 - 10:54:23