Welcome Guest ( Log In | Register )

> И неформату есть предел.

Рэп/хип-хоп/шансон/поп удаляются. Для них есть свои порталы.

 
Reply to this topicStart new topic
> M. S. I. - 9 Out Of 10 Doctors Recommend More Stupid Initials (2018), Positive Hardcore/Straightedge Hardcore Thrash/Rock
post Mar 31 2024, 12:08:43
Post #1

Правь статус, ####!111
**************
Group: Металариец
Posts: 2,000
Releases: 431
On Forums: 5 years 2 months
Thanks: 6185 time(s)
Canada


(IMG:https://metalarea.org/images/audiocovers/2024_Mar/acov_tid394867_thumb.jpg)

*Artist: M. S. I.
*Album: 9 Out Of 10 Doctors Recommend More Stupid Initials
*Year: 2018
*Genre: Positive Hardcore/Straightedge Hardcore Thrash/Rock
*Country: Canada (IMG:https://metalarea.org/forum/style_images/flags/Canada.png)
*Format: mp3@CBR320kbps
*Size: 96MB

Tracklist:
1. Generic Straightedge Song 00:40
2. Back In Control 01:13
3. Choke/Fighting For Nothing 01:11
4. Wizard Of Oz (TV theme cover song) 00:51
5. Satan Hellfuck 01:03
6. You 01:08
7. Choice 01:43
8. Addict 00:58
9. Midway 00:44
10. Our Fight 01:00
11. Sugar Sugar (The Archies cover song) 01:05
12. Infection 01:14
13. Deep Inside 00:28
14. Shopping Mall Massacre 01:21
15. Make My Day 01:00
16. Closed Mind 00:36
17. Waste Of Time 00:45
18. Macho Man 01:26
19. Trust 00:42
20. Lies 00:44
21. Daydream 01:10
22. Shoelace 01:05
23. Me, Myself, I and Them 01:06
24. Veggie Song 0:49
25. Generic Straightedge Song 00:49
26. Rear View Mirror 01:31
27. Alone 01:00
28. Loser 01:03
29. Border Song 01:24
******************************
Total playing time: 29:49

Extended info
Thanks to the original uploader

Derek Emerson and Glenn Salter were the editors of Metallic Assault fanzine in 1984.
https://thecorroseum.org/fanzines/metallic_assault-01.php
https://thecorroseum.org/fanzines/metallic_assault-02.php

vocals - Johnny Rankin
bass- Paul Morris [Sons of Ishmael]
guitar - Derek Emerson
guitar - Glenn Salter [ex- Death Of Gods]
drums - Timothy Alchin [ex- Death Of Gods]

https://www.discogs.com/artist/2186459-More-Stupid-Initials


Technical info
(IMG:https://metalarea.org/images/spectrogram/2024_Mar/ee8f1df9ca695a4b6432d42d6a1ef1c3.png)
Input File: 01 Generic Straightedge Song.mp3
Channels : 2
Sample Rate : 44100
Precision : 16-bit
Duration : 00:00:40.76 = 1797340 samples = 3056.7 CDDA sectors
File Size : 2.42M
Bit Rate : 474k
Sample Encoding: MPEG audio (layer I, II or III)
Comments :
Title=Generic Straightedge Song
Artist=More Stupid Initials
Album=9 Out Of 10 Doctors Recommend More Stupid Initials
Tracknumber=1/29
Year=2018
Genre=Hardcore



Register


Thanks:
(1) gwar,
Go to the top of the page
  Insert nick Quick quote
+Quote Post

Reply to this topicStart new topic
1 User(s) are reading this topic (1 Guests and 0 Anonymous Users)
0 Members:

 



- Lo-Fi Version Support form
Copyrights and abuse reports form
Time is now: 16th April 2024 - 08:07:51