Welcome Guest ( Log In | Register )

> Releases Upload / Добавление релизов

Добавить релиз тут / Click here to add release
Рекомендованные обменники / Recommended file shares

> Sisters Memon - Hail The Satanic Daughters (2024), Raw Black Metal
post Apr 1 2024, 04:41:24
Post #1

Правь статус, ####!111
**************
Group: Металариец
Posts: 8,644
Releases: 6891
On Forums: 13 years 4 months
Thanks: 120970 time(s)
Italy


(IMG:https://metalarea.org/images/audiocovers/2024_Apr/acov_tid394900_thumb.jpg)

*Artist: Sisters Memon
*Album: Hail The Satanic Daughters
*Year: 2024
*Genre: Raw Black Metal
*Country: International (IMG:https://metalarea.org/forum/style_images/flags/International.png)
*Format: mp3@CBR320kbps
*Size: 144MB

Tracklist:
1.Drawing up the Dark Goddess 02:04
2.The Toxic Shit Of Christianity 02:56
3.Hitwoman for the Devil 03:22
4.Leave them to perish in the wilderness 03:58
5.Newborn Bleeding 05:41
6.Stalk the Stricken 03:48
7.Murderous Hymns for the Firearms 04:59
8.Burn off the face of the Soothsayer 02:47
9.Ever Decreasing Flesh 05:06
10.The Extremists 05:12
11.Hail The Satanic Daughters 03:41
12.Poison the followers of God 05:01
13.Tipping Scorpions into the mouth of the Priest 04:15
14.Hypnotized by Demonic Children 02:38
15.Infiltrate the Sacrament 06:06
******************************
Total playing time: 1:01:34



Extended info
United Kingdom / Poland
Female vox


Technical info
(IMG:https://metalarea.org/images/spectrogram/2024_Apr/c78d82ef5f2af26b3f52ba666460ab4e.png)
Input File: 9.Ever Decreasing Flesh.mp3
Channels : 2
Sample Rate : 44100
Precision : 16-bit
Duration : 00:05:06.91 = 13534555 samples = 23018 CDDA sectors
File Size : 12.8M
Bit Rate : 334k
Sample Encoding: MPEG audio (layer I, II or III)
Comments :
Title=Ever Decreasing Flesh
Artist=Sisters Memon
Album=Hail The Satanic Daughters
Tracknumber=9/15
Year=2024
Discnumber=1/1



Register


Go to the top of the page
  Insert nick Quick quote
+Quote Post
 
Start new topic
Replies (1 - 3)
post Apr 1 2024, 21:55:06    Сейчас играет: ..
Post #2

Group: Подсевший
Posts: 15
Releases: 0
On Forums: 4 years 5 months
Thanks: 1 time(s)
Serbia


FLAC ..
Go to the top of the page
  Insert nick Quick quote
+Quote Post
post Apr 2 2024, 21:41:57
Post #3

Восемь Литров
********
Group: Металариец
Posts: 813
Releases: 18
On Forums: 6 years 1 month
Thanks: 3199 time(s)
Unknown


QUOTE(Madball74 @ Apr 1 2024, 21:55:06) *
FLAC ..


...Seek and ye shall FLAC...

Register



Thanks:
Go to the top of the page
  Insert nick Quick quote
+Quote Post
post Apr 3 2024, 18:58:17
Post #4

кручу наждак
**************
Group: Металариец
Posts: 6,493
Releases: 109
From: Самара
On Forums: 13 years 11 months
Thanks: 5026 time(s)
Russian Federation


Мягко говоря, cраное тупое говно.
Go to the top of the page
  Insert nick Quick quote
+Quote Post

Reply to this topicStart new topic
2 User(s) are reading this topic (2 Guests and 0 Anonymous Users)
0 Members:

 



- Lo-Fi Version Support form
Copyrights and abuse reports form
Time is now: 16th April 2024 - 08:32:15