Welcome Guest ( Log In | Register )

Объявления

* gmail.com упорно продолжает считать почту с нас "unsolicited" и отбивает в том числе и письма активации, поэтому просьба использовать альтернативные почтовые ящики.
------------
* gmail.com continues reject all mail from us as "unsolicited" (activation mails too) therefore please use alternate mail servers.

> Releases Upload / Добавление релизов

Добавить релиз тут / Click here to add release
Рекомендованные обменники / Recommended file shares

 
Reply to this topicStart new topic
> Disrotter - The Roots Of Our Evil [ep] (2024), Old School Death Metal
post Apr 1 2024, 04:53:35
Post #1

Правь статус, ####!111
**************
Group: Металариец
Posts: 8,703
Releases: 6949
On Forums: 13 years 5 months
Thanks: 121892 time(s)
Italy


(IMG:https://metalarea.org/images/audiocovers/2024_Apr/acov_tid394901_thumb.jpg)

*Artist: Disrotter
*Album: The Roots Of Our Evil [ep]
*Year: 2024
*Genre: Old School Death Metal
*Country: United States (IMG:https://metalarea.org/forum/style_images/flags/United%20States.png)
*Format: mp3@CBR320kbps
*Size: 22MB

Tracklist:
1.Quietus, Grotesque And Dispalyed 02:47
2.Restless Death 00:45
3.Thriving In Decay 02:25
4.The Retched End 03:01
******************************
Total playing time: 8:58



Technical info
(IMG:https://metalarea.org/images/spectrogram/2024_Apr/fa159a8884819ef1a38c2a90f30a0def.png)
Input File: 03 Thriving In Decay.mp3
Channels : 2
Sample Rate : 44100
Precision : 16-bit
Duration : 00:02:25.61 = 6421577 samples = 10921 CDDA sectors
File Size : 6.05M
Bit Rate : 332k
Sample Encoding: MPEG audio (layer I, II or III)
Comments :
Title=Thriving In Decay
Artist=Disrotter
Album=Restless Death
Tracknumber=3
Year=2024



Register


Go to the top of the page
  Insert nick Quick quote
+Quote Post

Reply to this topicStart new topic
1 User(s) are reading this topic (1 Guests and 0 Anonymous Users)
0 Members:

 



- Lo-Fi Version Support form
Copyrights and abuse reports form
Time is now: 23rd April 2024 - 09:09:08