Welcome Guest ( Log In | Register )

Объявления

* gmail.com упорно продолжает считать почту с нас "unsolicited" и отбивает в том числе и письма активации, поэтому просьба использовать альтернативные почтовые ящики.
------------
* gmail.com continues reject all mail from us as "unsolicited" (activation mails too) therefore please use alternate mail servers.

> Releases Upload / Добавление релизов

Добавить релиз тут / Click here to add release
Рекомендованные обменники / Recommended file shares

 
Reply to this topicStart new topic
> Kreuzigung - Gottes Licht Brennt Auf Meiner Haut... [demo] (2024), Raw Black Metal
post Apr 1 2024, 05:59:34
Post #1

Absorbence
**************
Group: Металариец
Posts: 2,571
Releases: 684
From: Vastland Abyss of Cthulhu
On Forums: 17 years 5 months
Thanks: 11413 time(s)
United States


(IMG:https://metalarea.org/images/audiocovers/2024_Apr/acov_tid394902_thumb.jpg)

*Artist: Kreuzigung
*Album: Gottes Licht Brennt Auf Meiner Haut... [demo]
*Year: 2024
*Genre: Raw Black Metal
*Country: Unknown (IMG:https://metalarea.org/forum/style_images/flags/Unknown.png)
*Format: mp3@CBR320kbps
*Size: 49MB

Tracklist:
1. Intro 01:04
2. Gottes Licht 04:53
3. Die Kreuzigung 05:48
4. Gottes Furcht 05:36
5. Outro 03:31
******************************
Total playing time: 20:52



Technical info
(IMG:https://metalarea.org/images/spectrogram/2024_Apr/2a35ff948b4155c15000047136d76f1a.png)
Input File: Kreuzigung - Gottes Licht brennt auf meiner Haut... - 01 Intro.mp3
Channels : 2
Sample Rate : 44100
Precision : 16-bit
Duration : 00:01:04.58 = 2848022 samples = 4843.57 CDDA sectors
File Size : 2.71M
Bit Rate : 336k
Sample Encoding: MPEG audio (layer I, II or III)
Comments :
Title=Intro
Artist=Kreuzigung
Album=Gottes Licht brennt auf meiner Haut...
Tracknumber=01/05
Year=2024
Genre=Raw Black Metal



Register


Go to the top of the page
  Insert nick Quick quote
+Quote Post

Reply to this topicStart new topic
2 User(s) are reading this topic (2 Guests and 0 Anonymous Users)
0 Members:

 



- Lo-Fi Version Support form
Copyrights and abuse reports form
Time is now: 23rd April 2024 - 08:53:39