Welcome Guest ( Log In | Register )

Объявления

* gmail.com упорно продолжает считать почту с нас "unsolicited" и отбивает в том числе и письма активации, поэтому просьба использовать альтернативные почтовые ящики.
------------
* gmail.com continues reject all mail from us as "unsolicited" (activation mails too) therefore please use alternate mail servers.

> Releases Upload / Добавление релизов

Добавить релиз тут / Click here to add release
Рекомендованные обменники / Recommended file shares

 
Reply to this topicStart new topic
> Roots Of Unrest - Burning Paradise (2024), Death Metal
post Apr 1 2024, 06:41:49
Post #1

Правь статус, ####!111
**************
Group: Металариец
Posts: 8,703
Releases: 6949
On Forums: 13 years 5 months
Thanks: 121892 time(s)
Italy


(IMG:https://metalarea.org/images/audiocovers/2024_Apr/acov_tid394903_thumb.jpg)

*Artist: Roots Of Unrest
*Album: Burning Paradise
*Year: 2024
*Genre: Death Metal
*Country: Germany (IMG:https://metalarea.org/forum/style_images/flags/Germany.png)
*Format: mp3@CBR320kbps
*Size: 80MB

Tracklist:
01.Burning Paradise 03:20
02.We Are the Dead 03:24
03.The Immortal One 04:31
04.On a Valkyrie's Ride 04:21
05.Endless Road 03:34
06.End of All Days 04:34
07.Prophet 03:23
08.The Place You Call My Home 03:29
09.Curse of the Witch 03:51
******************************
Total playing time: 34:27

(IMG:https://metalarea.org/images/youtube.png)


Technical info
(IMG:https://metalarea.org/images/spectrogram/2024_Apr/0eb4fe76e9ab3219a1952c38b58590b1.png)
Input File: 2.We Are the Dead.mp3
Channels : 2
Sample Rate : 44100
Precision : 16-bit
Duration : 00:03:24.42 = 9015010 samples = 15331.6 CDDA sectors
File Size : 8.42M
Bit Rate : 330k
Sample Encoding: MPEG audio (layer I, II or III)
Comments :
Title=We Are the Dead
Artist=Roots Of Unrest
Album=Burning Paradise
Tracknumber=2/9
Year=2024
Discnumber=1/1



Register


Go to the top of the page
  Insert nick Quick quote
+Quote Post

Reply to this topicStart new topic
2 User(s) are reading this topic (2 Guests and 0 Anonymous Users)
0 Members:

 



- Lo-Fi Version Support form
Copyrights and abuse reports form
Time is now: 23rd April 2024 - 09:00:10