Welcome Guest ( Log In | Register )

Объявления

* gmail.com упорно продолжает считать почту с нас "unsolicited" и отбивает в том числе и письма активации, поэтому просьба использовать альтернативные почтовые ящики.
------------
* gmail.com continues reject all mail from us as "unsolicited" (activation mails too) therefore please use alternate mail servers.

> Releases Upload / Добавление релизов

Добавить релиз тут / Click here to add release
Рекомендованные обменники / Recommended file shares

 
Reply to this topicStart new topic
> Kaoteon & Death Tribe - Death Trap [split] (2024), Black/Death Metal | Thrash/Death Metal (D9)
post Apr 1 2024, 06:48:43
Post #1

Правь статус, ####!111
**************
Group: Металариец
Posts: 8,703
Releases: 6949
On Forums: 13 years 5 months
Thanks: 121892 time(s)
Italy


(IMG:https://metalarea.org/images/audiocovers/2024_Apr/acov_tid394904_thumb.jpg)

*Artist: Kaoteon & Death Tribe
*Album: Death Trap [split]
*Year: 2024
*Genre: Black/Death Metal | Thrash/Death Metal
*Country: Lebanon (IMG:https://metalarea.org/forum/style_images/flags/Lebanon.png) | Lebanon (IMG:https://metalarea.org/forum/style_images/flags/Lebanon.png)
*Format: mp3@CBR320kbps
*Size: 20MB

Tracklist:
Kaoteon:
1.Death Trap 04:30
Death Tribe:
2.Thawra 03:51
******************************
Total playing time: 8:21


(IMG:https://metalarea.org/images/youtube.png)

Technical info
(IMG:https://metalarea.org/images/spectrogram/2024_Apr/b4fb9b50de33926b31c040ced4e3897c.png)
Input File: 1.Death Trap.mp3
Channels : 2
Sample Rate : 44100
Precision : 16-bit
Duration : 00:04:30.54 = 11930902 samples = 20290.6 CDDA sectors
File Size : 11.3M
Bit Rate : 333k
Sample Encoding: MPEG audio (layer I, II or III)
Comments :
Title=Death Trap
Artist=Kaoteon / Linus Klausenitzer
Album=Death Trap
Tracknumber=1/2
Year=2024
Discnumber=1/1



Register


Go to the top of the page
  Insert nick Quick quote
+Quote Post

Reply to this topicStart new topic
2 User(s) are reading this topic (2 Guests and 0 Anonymous Users)
0 Members:

 



- Lo-Fi Version Support form
Copyrights and abuse reports form
Time is now: 23rd April 2024 - 09:15:15