Welcome Guest ( Log In | Register )

Объявления

* gmail.com упорно продолжает считать почту с нас "unsolicited" и отбивает в том числе и письма активации, поэтому просьба использовать альтернативные почтовые ящики.
------------
* gmail.com continues reject all mail from us as "unsolicited" (activation mails too) therefore please use alternate mail servers.

> Releases Upload / Добавление релизов

Добавить релиз тут / Click here to add release
Рекомендованные обменники / Recommended file shares

 
Reply to this topicStart new topic
> Orgiastic Engorgement - Intrauterine Devirginization [ep] (2022), Slamming Brutal Death Metal
post Apr 1 2024, 08:57:30
Post #1

Два Литра
**
Group: Дух
Posts: 128
Releases: 124
From: Новосибирск
On Forums: 4 years 2 months
Thanks: 656 time(s)
Russian Federation


(IMG:https://metalarea.org/images/audiocovers/2024_Apr/acov_tid394906_thumb.jpg)

*Artist: Orgiastic Engorgement
*Album: Intrauterine Devirginization [ep]
*Year: 2022
*Genre: Slamming Brutal Death Metal
*Country: Spain (IMG:https://metalarea.org/forum/style_images/flags/Spain.png)
*Format: mp3@CBR320kbps
*Size: 19MB

Tracklist:
01. Frantic Masturbatory Profanation Of Putrescent Cadaveric Remains 03:09
02. Gargantuan Deglutition Of Regurgitated Entrails 02:17
03. Sanguinolent Embryocidal Uterovaginectomy 02:13
******************************
Total playing time: 7:40

Technical info
(IMG:https://metalarea.org/images/spectrogram/2024_Apr/29e51392c3031af5ce6bc8b6208e35b3.png)
Input File: 02. Gargantuan Deglutition of Regurgitated Entrails.mp3
Channels : 2
Sample Rate : 44100
Precision : 16-bit
Duration : 00:02:17.41 = 6059957 samples = 10306 CDDA sectors
File Size : 5.79M
Bit Rate : 337k
Sample Encoding: MPEG audio (layer I, II or III)
Comments :
Title=Gargantuan Deglutition Of Regurgitated Entrails
Artist=Orgiastic Engorgement
Album=Intrauterine Devirginization (EP)
Tracknumber=02
Year=2022
Genre=Slamming Brutal Death Metal



Register


Thanks:
Go to the top of the page
  Insert nick Quick quote
+Quote Post

Reply to this topicStart new topic
2 User(s) are reading this topic (2 Guests and 0 Anonymous Users)
0 Members:

 



- Lo-Fi Version Support form
Copyrights and abuse reports form
Time is now: 23rd April 2024 - 09:47:27