Welcome Guest ( Log In | Register )

Объявления

* gmail.com упорно продолжает считать почту с нас "unsolicited" и отбивает в том числе и письма активации, поэтому просьба использовать альтернативные почтовые ящики.
------------
* gmail.com continues reject all mail from us as "unsolicited" (activation mails too) therefore please use alternate mail servers.

> Releases Upload / Добавление релизов

Добавить релиз тут / Click here to add release
Рекомендованные обменники / Recommended file shares

 
Reply to this topicStart new topic
> Deceiver - Bleeding Lies [ep] (2024), Thrash Metal (D16)
post Apr 1 2024, 10:58:24
Post #1

Правь статус, 616
**************
Group: Металариец
Posts: 10,633
Releases: 8644
From: 55°35’N 38°08’E
On Forums: 15 years 9 months
Thanks: 153460 time(s)
Russian Federation


(IMG:https://metalarea.org/images/audiocovers/2024_Apr/acov_tid394909_thumb.jpg)

*Artist: Deceiver
*Album: Bleeding Lies [ep]
*Year: 2024
*Genre: Thrash Metal
*Country: Greece (IMG:https://metalarea.org/forum/style_images/flags/Greece.png)
*Format: mp3@CBR320kbps
*Size: 26MB

Tracklist:
1.Cicero Words 02:54
2.Repedence 03:07
3.Bleeding Lies 02:13
4.Social Disease 02:41
******************************
Total playing time: 10:55



(IMG:https://metalarea.org/images/youtube.png)

Technical info
(IMG:https://metalarea.org/images/spectrogram/2024_Apr/ed310d002367c51d229926bd9908eb0c.png)
Input File: 01 Cicero Words.mp3
Channels : 2
Sample Rate : 44100
Precision : 16-bit
Duration : 00:02:54.90 = 7713178 samples = 13117.6 CDDA sectors
File Size : 7.21M
Bit Rate : 330k
Sample Encoding: MPEG audio (layer I, II or III)
Comments :
Title=Cicero Words
Artist=DECEIVER
Album=Bleeding Lies E.P.
Tracknumber=1
Year=2024
Genre=Thrash Metal



Register


Go to the top of the page
  Insert nick Quick quote
+Quote Post

Reply to this topicStart new topic
2 User(s) are reading this topic (2 Guests and 0 Anonymous Users)
0 Members:

 



- Lo-Fi Version Support form
Copyrights and abuse reports form
Time is now: 23rd April 2024 - 08:05:51