Welcome Guest ( Log In | Register )

Объявления

* gmail.com упорно продолжает считать почту с нас "unsolicited" и отбивает в том числе и письма активации, поэтому просьба использовать альтернативные почтовые ящики.
------------
* gmail.com continues reject all mail from us as "unsolicited" (activation mails too) therefore please use alternate mail servers.

> Releases Upload / Добавление релизов

Добавить релиз тут / Click here to add release
Рекомендованные обменники / Recommended file shares

 
Reply to this topicStart new topic
> Fata Morgana - Devět Bran (2015), Heavy Metal (D10)
post Apr 1 2024, 16:40:09
Post #1

Правь статус, 616
**************
Group: Металариец
Posts: 10,633
Releases: 8644
From: 55°35’N 38°08’E
On Forums: 15 years 9 months
Thanks: 153461 time(s)
Russian Federation


(IMG:https://metalarea.org/images/audiocovers/2024_Apr/acov_tid394912_thumb.jpg)

*Artist: Fata Morgana
*Album: Devět Bran
*Year: 2015
*Genre: Heavy Metal
*Country: Czech Republic (IMG:https://metalarea.org/forum/style_images/flags/Czech%20Republic.png)
*Format: mp3@CBR320kbps
*Size: 93MB

Tracklist:
1.Devět Bran 03:28
2.Dračí Krev 03:33
3.V Prach Se Obrátíš 04:21
4.Pavučina Smrti 03:49
5.Kulhavej Jack 04:08
6.Zachraň Se 03:43
7.Matrix 03:30
8.Kráječ 04:05
9.Vypadni 04:04
10.Pohřbí Tě Za Živa 05:45
******************************
Total playing time: 40:26


(IMG:https://metalarea.org/images/youtube.png)
(IMG:https://metalarea.org/images/youtube.png)

Technical info
(IMG:https://metalarea.org/images/spectrogram/2024_Apr/9a27d984346b55310368dc954b4f591f.png)
Input File: 01 Devět Bran.mp3
Channels : 2
Sample Rate : 44100
Precision : 16-bit
Duration : 00:03:28.24 = 9183208 samples = 15617.7 CDDA sectors
File Size : 8.40M
Bit Rate : 323k
Sample Encoding: MPEG audio (layer I, II or III)
Comments :
Title=Devět Bran
Artist=Fata Morgana
Album=Devět Bran
Tracknumber=1
Year=2015
Genre=Heavy Metal



Register


Go to the top of the page
  Insert nick Quick quote
+Quote Post

Reply to this topicStart new topic
1 User(s) are reading this topic (1 Guests and 0 Anonymous Users)
0 Members:

 



- Lo-Fi Version Support form
Copyrights and abuse reports form
Time is now: 23rd April 2024 - 08:31:40