Welcome Guest ( Log In | Register )

Объявления

* gmail.com упорно продолжает считать почту с нас "unsolicited" и отбивает в том числе и письма активации, поэтому просьба использовать альтернативные почтовые ящики.
------------
* gmail.com continues reject all mail from us as "unsolicited" (activation mails too) therefore please use alternate mail servers.

> Releases Upload / Добавление релизов

Добавить релиз тут / Click here to add release
Рекомендованные обменники / Recommended file shares

 
Reply to this topicStart new topic
> Nāv - Trpte (2023), Black Metal (D5)
post Apr 1 2024, 16:51:18
Post #1

Правь статус, 616
**************
Group: Металариец
Posts: 10,633
Releases: 8644
From: 55°35’N 38°08’E
On Forums: 15 years 9 months
Thanks: 153461 time(s)
Russian Federation


(IMG:https://metalarea.org/images/audiocovers/2024_Apr/acov_tid394913_thumb.jpg)

*Artist: Nāv
*Album: Trpte
*Year: 2023
*Genre: Black Metal
*Country: Czech Republic (IMG:https://metalarea.org/forum/style_images/flags/Czech%20Republic.png)
*Format: mp3@CBR320kbps
*Size: 97MB

Tracklist:
1.Crux 03:40
2.Vukojebina 04:09
3.Ex Materia 03:19
4.Vanitas 04:50
5.Ozymandias 04:52
6.Jamais Vu 03:37
7.Promaja 03:36
8.Epimetheus 03:51
9.Usurpator 03:30
10.Vesmir 06:22
******************************
Total playing time: 41:46



(IMG:https://metalarea.org/images/youtube.png)

Technical info
(IMG:https://metalarea.org/images/spectrogram/2024_Apr/010edc5c67ace0cadfe97947bc89c697.png)
Input File: 02 Vukojebina.mp3
Channels : 2
Sample Rate : 44100
Precision : 16-bit
Duration : 00:04:09.25 = 10991969 samples = 18693.8 CDDA sectors
File Size : 10.0M
Bit Rate : 322k
Sample Encoding: MPEG audio (layer I, II or III)
Comments :
Title=Vukojebina
Artist=Nav
Album=Trpte
Tracknumber=2
Year=2023
Genre=Black Metal



Register


Go to the top of the page
  Insert nick Quick quote
+Quote Post

Reply to this topicStart new topic
1 User(s) are reading this topic (1 Guests and 0 Anonymous Users)
0 Members:

 



- Lo-Fi Version Support form
Copyrights and abuse reports form
Time is now: 23rd April 2024 - 08:41:58