Welcome Guest ( Log In | Register )

Объявления

* gmail.com упорно продолжает считать почту с нас "unsolicited" и отбивает в том числе и письма активации, поэтому просьба использовать альтернативные почтовые ящики.
------------
* gmail.com continues reject all mail from us as "unsolicited" (activation mails too) therefore please use alternate mail servers.

> Releases Upload / Добавление релизов

Добавить релиз тут / Click here to add release
Рекомендованные обменники / Recommended file shares

> Victimarum - Tyhjyyden Roviolla [ep] (2023), Black Metal
post Apr 1 2024, 16:58:17
Post #1

Правь статус, 616
**************
Group: Металариец
Posts: 10,633
Releases: 8644
From: 55°35’N 38°08’E
On Forums: 15 years 9 months
Thanks: 153461 time(s)
Russian Federation


(IMG:https://metalarea.org/images/audiocovers/2024_Apr/acov_tid394914_thumb.jpg)

*Artist: Victimarum
*Album: Tyhjyyden Roviolla [ep]
*Year: 2023
*Genre: Black Metal
*Country: Finland (IMG:https://metalarea.org/forum/style_images/flags/Finland.png)
*Format: mp3@CBR320kbps
*Size: 28MB

Tracklist:
1. Tyhjyyden Roviolla 05:05
2. Kuoleva Lupaus (Horna cover) 06:59
******************************
Total playing time: 12:04



(IMG:https://metalarea.org/images/youtube.png)

Technical info
(IMG:https://metalarea.org/images/spectrogram/2024_Apr/cbdebe46246fc9aa50a323fdcda66246.png)
Input File: 01 Tyhjyyden Roviolla.mp3
Channels : 2
Sample Rate : 44100
Precision : 16-bit
Duration : 00:05:05.89 = 13489617 samples = 22941.5 CDDA sectors
File Size : 12.3M
Bit Rate : 323k
Sample Encoding: MPEG audio (layer I, II or III)
Comments :
Title=Tyhjyyden Roviolla
Artist=Victimarum
Album=Tyhjyyden Roviolla
Tracknumber=1/2
Year=2023
Genre=Black Metal
Discnumber=1/1



Register


Go to the top of the page
  Insert nick Quick quote
+Quote Post
 
Start new topic
Replies (1 - 3)
post Apr 1 2024, 18:51:26
Post #2

Правь статус, ####!111
**************
Group: Металариец
Posts: 2,010
Releases: 0
From: Canada
On Forums: 11 years 5 months
Thanks: 1429 time(s)
Canada


FLAC Tracs?
Go to the top of the page
  Insert nick Quick quote
+Quote Post
post Apr 1 2024, 19:01:52
Post #3

Правь статус, 616
**************
Group: Металариец
Posts: 10,633
Releases: 8644
From: 55°35’N 38°08’E
On Forums: 15 years 9 months
Thanks: 153461 time(s)
Russian Federation


FLAC

Register


Thanks:
Go to the top of the page
  Insert nick Quick quote
+Quote Post
post Apr 3 2024, 21:56:58
Post #4

Два Литра
**
Group: Завсегдатай
Posts: 179
Releases: 0
On Forums: 16 years 8 months
Thanks: 25 time(s)
Ukraine


Конечно, пока рано о чем-то говорить, но группа идет в хорошем направлении. Творчество вокалиста в Domus Serpentis меня радует.
Go to the top of the page
  Insert nick Quick quote
+Quote Post

Reply to this topicStart new topic
2 User(s) are reading this topic (2 Guests and 0 Anonymous Users)
0 Members:

 



- Lo-Fi Version Support form
Copyrights and abuse reports form
Time is now: 23rd April 2024 - 08:16:45