Welcome Guest ( Log In | Register )

Объявления

* gmail.com упорно продолжает считать почту с нас "unsolicited" и отбивает в том числе и письма активации, поэтому просьба использовать альтернативные почтовые ящики.
------------
* gmail.com continues reject all mail from us as "unsolicited" (activation mails too) therefore please use alternate mail servers.

> Releases Upload / Добавление релизов

Добавить релиз тут / Click here to add release
Рекомендованные обменники / Recommended file shares

 
Reply to this topicStart new topic
> Heroes Of The Gauntlet - Tales From The Maze [ep] (2024), Symphonic Power Metal
post Apr 1 2024, 18:19:19
Post #1

Правь статус, ####!111
**************
Group: Металариец
Posts: 7,467
Releases: 6834
From: Одесса
On Forums: 15 years 10 months
Thanks: 79507 time(s)
Ukraine


(IMG:https://metalarea.org/images/audiocovers/2024_Apr/acov_tid394918_thumb.jpg)

*Artist: Heroes Of The Gauntlet
*Album: Tales From The Maze [ep]
*Year: 2024
*Genre: Symphonic Power Metal
*Country: United Kingdom (IMG:https://metalarea.org/forum/style_images/flags/United%20Kingdom.png)
*Format: mp3@CBR320kbps
*Size: 62MB

Tracklist:
1. The Grand Magus 04:04
2. Heroes of the Gauntlet 04:05
3. The Queen's Nest 04:40
4. The Valkyrie Has Fallen 03:48
5. The Dryad's Song 04:44
6. The Burning Temple of Dur 04:51
******************************
Total playing time: 26:12



Extended info
Line - up:

Marco - Guitars (Terror Mantra, ex-Antrum)
Anna - Vocals


Technical info
(IMG:https://metalarea.org/images/spectrogram/2024_Apr/d2cb5d02f9d6b1b5ca0f6a75ec028cf9.png)
Input File: 01. The Grand Magus.mp3
Channels : 2
Sample Rate : 44100
Precision : 16-bit
Duration : 00:04:04.26 = 10771910 samples = 18319.6 CDDA sectors
File Size : 9.77M
Bit Rate : 320k
Sample Encoding: MPEG audio (layer I, II or III)
Comments :
Title=The Grand Magus
Artist=Heroes of the Gauntlet
Album=Tales From The Maze (EP)
Tracknumber=1
Year=2024
Genre=Power Metal



Register


Go to the top of the page
  Insert nick Quick quote
+Quote Post

Reply to this topicStart new topic
1 User(s) are reading this topic (1 Guests and 0 Anonymous Users)
0 Members:

 



- Lo-Fi Version Support form
Copyrights and abuse reports form
Time is now: 23rd April 2024 - 09:51:17