Welcome Guest ( Log In | Register )

Объявления

* gmail.com упорно продолжает считать почту с нас "unsolicited" и отбивает в том числе и письма активации, поэтому просьба использовать альтернативные почтовые ящики.
------------
* gmail.com continues reject all mail from us as "unsolicited" (activation mails too) therefore please use alternate mail servers.

> Releases Upload / Добавление релизов

Добавить релиз тут / Click here to add release
Рекомендованные обменники / Recommended file shares

 
Reply to this topicStart new topic
> Hornado - Vicious Vengeance [ep] (2024), Heavy Metal
post Apr 1 2024, 18:30:46
Post #1

Правь статус, ####!111
**************
Group: Металариец
Posts: 7,467
Releases: 6834
From: Одесса
On Forums: 15 years 10 months
Thanks: 79507 time(s)
Ukraine


(IMG:https://metalarea.org/images/audiocovers/2024_Apr/acov_tid394919_thumb.jpg)

*Artist: Hornado
*Album: Vicious Vengeance [ep]
*Year: 2024
*Genre: Heavy Metal
*Country: Germany (IMG:https://metalarea.org/forum/style_images/flags/Germany.png)
*Format: mp3@CBR320kbps
*Size: 60MB

Tracklist:
1. The Arrow Will Strike 05:11
2. Tightrope Walker of the Inbetween 07:18
3. The Warrior King (Returns) 07:34
4. Der Weg des Stahls 05:17
******************************
Total playing time: 25:20



Extended info
Line - up:

Hornhammer - Drums
Dave - Vocals (ex-Wadgelmir)
Matt - Guitars (Neck Cemetery, ex-Discouraged, ex-Thunderskull, ex-Havok, ex-Sidewalk Heroes)
Moe - Bass
Jan - Guitars (lead) (Fabulous Desaster, Gun Barrel)

This 4-Track EP is a Gift to the Fans while the Band is on Hiatus.
It Contains a re-recording of the classic "The Warrior King, originaly released on the Demo "Heterock Explosion".
Also for the first Time ever there are German Lyrics in the Track "Der Weg des Stahls"


Technical info
(IMG:https://metalarea.org/images/spectrogram/2024_Apr/4796c1a4af40f626b98871d01bba09f5.png)
Input File: 01. The Arrow Will Strike.mp3
Channels : 2
Sample Rate : 44100
Precision : 16-bit
Duration : 00:05:11.22 = 13724670 samples = 23341.3 CDDA sectors
File Size : 12.5M
Bit Rate : 320k
Sample Encoding: MPEG audio (layer I, II or III)
Comments :
Title=The Arrow Will Strike
Artist=Hornado
Album=Vicious Vengeance (EP)
Tracknumber=1
Year=2024
Genre=137



Register


Go to the top of the page
  Insert nick Quick quote
+Quote Post

Reply to this topicStart new topic
1 User(s) are reading this topic (1 Guests and 0 Anonymous Users)
0 Members:

 



- Lo-Fi Version Support form
Copyrights and abuse reports form
Time is now: 23rd April 2024 - 10:02:20