Welcome Guest ( Log In | Register )

Объявления

* gmail.com упорно продолжает считать почту с нас "unsolicited" и отбивает в том числе и письма активации, поэтому просьба использовать альтернативные почтовые ящики.
------------
* gmail.com continues reject all mail from us as "unsolicited" (activation mails too) therefore please use alternate mail servers.

> Releases Upload / Добавление релизов

Добавить релиз тут / Click here to add release
Рекомендованные обменники / Recommended file shares

> Greyhawk - Thunderheart (2024), Heavy/Power Metal
post Apr 1 2024, 18:36:09
Post #1

Правь статус, ####!111
**************
Group: Металариец
Posts: 35,634
Releases: 26525
From: Г.Харьков
On Forums: 11 years 11 months
Thanks: 573582 time(s)
Ukraine


(IMG:https://metalarea.org/images/audiocovers/2024_Apr/acov_tid394920_thumb.jpg)

*Artist: Greyhawk
*Album: Thunderheart
*Year: 2024
*Genre: Heavy/Power Metal
*Country: United States (IMG:https://metalarea.org/forum/style_images/flags/United%20States.png)
*Format: mp3@CBR320kbps
*Size: 103MB

Tracklist:
1. Spellstone 04:07
2. Ombria (City of the Night) 05:14
3. Thunderheart 04:19
4. Rock & Roll City 04:26
5. Steadfast 06:34
6. Sacrifice of Steel 04:44
7. The Last Mile 05:53
8. Back in the Fight 03:52
9. The Golden Candle 05:29
******************************
Total playing time: 44:38




Extended info
FLAC-Rip
Darin Wall Bass
Jesse Berlin Guitars
Nate Butler Drums
Rev Taylor Vocals
Rob Steinway Guitars



Technical info
(IMG:https://metalarea.org/images/spectrogram/2024_Apr/c861c158bae8648d579322c264f47974.png)
Input File: 07 - The Last Mile.mp3
Channels : 2
Sample Rate : 44100
Precision : 16-bit
Duration : 00:05:53.87 = 15605843 samples = 26540.5 CDDA sectors
File Size : 14.2M
Bit Rate : 322k
Sample Encoding: MPEG audio (layer I, II or III)
Comments :
Title=The Last Mile
Artist=Greyhawk
Album=Thunderheart
Tracknumber=7/9
Year=2024
Discnumber=1/1



Register


Go to the top of the page
  Insert nick Quick quote
+Quote Post
 
Start new topic
Replies (1 - 1)
post Apr 1 2024, 19:27:04
Post #2

Восемь Литров
********
Group: Металариец
Posts: 835
Releases: 0
On Forums: 14 years 9 months
Thanks: 210 time(s)
Ukraine


СПАСИБО!!!
Go to the top of the page
  Insert nick Quick quote
+Quote Post

Reply to this topicStart new topic
2 User(s) are reading this topic (2 Guests and 0 Anonymous Users)
0 Members:

 



- Lo-Fi Version Support form
Copyrights and abuse reports form
Time is now: 23rd April 2024 - 08:39:57