Welcome Guest ( Log In | Register )

Объявления

* gmail.com упорно продолжает считать почту с нас "unsolicited" и отбивает в том числе и письма активации, поэтому просьба использовать альтернативные почтовые ящики.
------------
* gmail.com continues reject all mail from us as "unsolicited" (activation mails too) therefore please use alternate mail servers.

> Releases Upload / Добавление релизов

Добавить релиз тут / Click here to add release
Рекомендованные обменники / Recommended file shares

 
Reply to this topicStart new topic
> Psython - FUN? (2024), Progressive Thrash Metal (D6)
post Apr 1 2024, 18:47:37
Post #1

Правь статус, ####!111
**************
Group: Металариец
Posts: 35,884
Releases: 26737
From: Г.Харьков
On Forums: 12 years 1 week
Thanks: 579390 time(s)
Ukraine


(IMG:https://metalarea.org/images/audiocovers/2024_Apr/acov_tid394922_thumb.jpg)

*Artist: Psython
*Album: FUN?
*Year: 2024
*Genre: Progressive Thrash Metal
*Country: United Kingdom (IMG:https://metalarea.org/forum/style_images/flags/United%20Kingdom.png)
*Format: mp3@CBR320kbps
*Size: 93MB

Tracklist:
1. Hatchling 03:20
2. Crapitalist 04:10
3. Chugga Chug O'Doom 03:58
4. Desiring Thorough Fornication 04:12
5. FUN? 03:39
6. GLORYZ 04:31
7. Mild Anxiety 01:55
8. WTFDYKAWYW? 03:11
9. TechNo 04:16
10. Hero 07:22
******************************
Total playing time: 40:34



Extended info
Duayne Carpenter Bass (2014-2016, 2019-present)
See also: ex-Deformation of Man
Will Price Guitars (2014-present)
See also: Myth of a Life, ex-Septic Fatality
Bing Vocals (lead) (2014-2020, 2023-present)
See also: Chapel Floods, ex-Archelon
Harry Redfern Drums (2015-present)
See also: Angry Grandad
Robert Eddie Rudd Bass (2016-2018), Guitars (2019-present)


Technical info
(IMG:https://metalarea.org/images/spectrogram/2024_Apr/66c9a786cc63397f7b3dbfe838ebfc1a.png)
Input File: 04 - Desiring Thorough Fornication (feat. Dream Troll).mp3
Channels : 2
Sample Rate : 44100
Precision : 16-bit
Duration : 00:04:12.65 = 11141733 samples = 18948.5 CDDA sectors
File Size : 10.1M
Bit Rate : 320k
Sample Encoding: MPEG audio (layer I, II or III)
Comments :
Title=Desiring Thorough Fornication (feat. Dream Troll)
Artist=䐀爀攀愀洀 吀爀漀氀氀
Album=FUN?
Tracknumber=4
Year=2024



Register


Go to the top of the page
  Insert nick Quick quote
+Quote Post

Reply to this topicStart new topic
1 User(s) are reading this topic (1 Guests and 0 Anonymous Users)
0 Members:

 



- Lo-Fi Version Support form
Copyrights and abuse reports form
Time is now: 18th May 2024 - 01:53:49