Welcome Guest ( Log In | Register )

Объявления

* gmail.com упорно продолжает считать почту с нас "unsolicited" и отбивает в том числе и письма активации, поэтому просьба использовать альтернативные почтовые ящики.
------------
* gmail.com continues reject all mail from us as "unsolicited" (activation mails too) therefore please use alternate mail servers.

> Releases Upload / Добавление релизов

Добавить релиз тут / Click here to add release
Рекомендованные обменники / Recommended file shares

 
Reply to this topicStart new topic
> Blood Gulch - Blood Gulch Destroys Annapolis (Live In Annapolis) [live] (2024), Thrash/Death Metal
post Apr 1 2024, 18:55:24
Post #1

Правь статус, ####!111
**************
Group: Металариец
Posts: 7,541
Releases: 6899
From: Одесса
On Forums: 15 years 11 months
Thanks: 80299 time(s)
Ukraine


(IMG:https://metalarea.org/images/audiocovers/2024_Apr/acov_tid394923_thumb.jpg)

*Artist: Blood Gulch
*Album: Blood Gulch Destroys Annapolis (Live In Annapolis) [live]
*Year: 2024
*Genre: Thrash/Death Metal
*Country: United States (IMG:https://metalarea.org/forum/style_images/flags/United%20States.png)
*Format: mp3@CBR320kbps
*Size: 70MB

Tracklist:
1. 117 05:23
2. Somewhere Between 04:26
3. Suspended Disbelief 03:33
4. Drug 03:52
5. Winter Contingency 07:14
6. Pull the Plug (Death cover) 04:54
******************************
Total playing time: 29:22



Extended info
Line - up:

Gavin Miele - Bass, Vocals
Julian Marks - Drums
Luke Eggleston - Guitars


Technical info
(IMG:https://metalarea.org/images/spectrogram/2024_Apr/b34473e38f84945fbeedd27e72aeecd2.png)
Input File: 01. 117.mp3
Channels : 2
Sample Rate : 44100
Precision : 16-bit
Duration : 00:05:23.52 = 14267276 samples = 24264.1 CDDA sectors
File Size : 12.9M
Bit Rate : 320k
Sample Encoding: MPEG audio (layer I, II or III)
Comments :
Title=117
Artist=Blood Gulch
Album=Blood Gulch Destroys Annapolis (Live in Annapolis) (Live)
Tracknumber=1
Year=2024
Genre=Thrash | Death Metal



Register


Go to the top of the page
  Insert nick Quick quote
+Quote Post

Reply to this topicStart new topic
1 User(s) are reading this topic (1 Guests and 0 Anonymous Users)
0 Members:

 



- Lo-Fi Version Support form
Copyrights and abuse reports form
Time is now: 18th May 2024 - 01:15:43