Welcome Guest ( Log In | Register )

> 

Здесь релизы с живыми прямыми ссылками на lossless

 
Reply to this topicStart new topic
> KCTMX - Neurava Zgraya (Neurian Horde) [demo] (2024), Blackened Heavy Metal
post Apr 1 2024, 19:07:09
Post #1

Правь статус, ####!111
**************
Group: Металариец
Posts: 7,446
Releases: 6816
From: Одесса
On Forums: 15 years 10 months
Thanks: 79266 time(s)
Ukraine


(IMG:https://metalarea.org/images/audiocovers/2024_Apr/acov_tid394924_thumb.jpg)

*Artist: KCTMX
*Album: Neurava Zgraya (Neurian Horde) [demo]
*Year: 2024
*Genre: Blackened Heavy Metal
*Country: Belarus (IMG:https://metalarea.org/forum/style_images/flags/Belarus.png)
*Format: flac
*Size: 149MB

Tracklist:
1. Neurava Zgraya (Neurian Horde) 04:38
2. Vuzhalka (Serpent King's Daughter) 04:57
3. Navalnitsa (Thunderstorm) 04:34
4. Vedzma (Witch) 04:42
******************************
Total playing time: 18:51



Extended info
Line - up:

Igor Kruk - Unknown
Sergei Yakunin - Unknown
Dmitri Sokovets - Unknown
Daniil Shcharbunou - Unknown
Alexander Koptsik - Unknown


Technical info
(IMG:https://metalarea.org/images/spectrogram/2024_Apr/258e9f6144517e27ca7448d408b026aa.png)
Input File: 01 Neurava Zgraya (Neurian Horde).flac
Channels : 2
Sample Rate : 44100
Precision : 16-bit
Duration : 00:04:38.75 = 12293022 samples = 20906.5 CDDA sectors
File Size : 36.8M
Bit Rate : 1.06M
Sample Encoding: 16-bit FLAC
Comments :
Artist=KCTMX
Album Artist=KCTMX
ISRC=QZHN82484277
Date=2024
Title=Neurava Zgraya (Neurian Horde)
TrackNumber=1
Album=Neurava Zgraya (Neurian Horde) (Demo)
Genre=Blackened Heavy Metal
Description=



Register


Thanks:
Go to the top of the page
  Insert nick Quick quote
+Quote Post

Reply to this topicStart new topic
1 User(s) are reading this topic (1 Guests and 0 Anonymous Users)
0 Members:

 



- Lo-Fi Version Support form
Copyrights and abuse reports form
Time is now: 16th April 2024 - 09:45:31