Welcome Guest ( Log In | Register )

 
Reply to this topicStart new topic
> Embryonic Abnormality - Selexitintion [ep] (2022), Slamming Brutal Death Metal
post Apr 1 2024, 19:29:45
Post #1

Два Литра
**
Group: Дух
Posts: 125
Releases: 121
From: Новосибирск
On Forums: 4 years 2 months
Thanks: 610 time(s)
Russian Federation


(IMG:https://metalarea.org/images/audiocovers/2024_Apr/acov_tid394925_thumb.jpg)

*Artist: Embryonic Abnormality
*Album: Selexitintion [ep]
*Year: 2022
*Genre: Slamming Brutal Death Metal
*Country: Italy (IMG:https://metalarea.org/forum/style_images/flags/Italy.png)
*Format: mp3@CBR320kbps
*Size: 21MB

Tracklist:
01. Frantic Cryogenic Breakout 03:47
02. Abducation Of Worthless Existance 03:09
03. Byotic Mass Extintion 02:29
******************************
Total playing time: 9:26

Technical info
(IMG:https://metalarea.org/images/spectrogram/2024_Apr/d6848504781cefdd8b18825bfc938f76.png)
Input File: 02. Abducation Of Worthless Existance.mp3
Channels : 2
Sample Rate : 44100
Precision : 16-bit
Duration : 00:03:09.66 = 8363962 samples = 14224.4 CDDA sectors
File Size : 7.71M
Bit Rate : 325k
Sample Encoding: MPEG audio (layer I, II or III)
Comments :
Title=Abducation Of Worthless Existance
Artist=Embryonic Abnormality
Album=Selexitintion (EP)
Tracknumber=02
Year=2022
Genre=Slamming Brutal Death Metal



Register
Go to the top of the page
  Insert nick Quick quote
+Quote Post

Reply to this topicStart new topic
1 User(s) are reading this topic (1 Guests and 0 Anonymous Users)
0 Members:

 



- Lo-Fi Version Support form
Copyrights and abuse reports form
Time is now: 21st April 2024 - 05:11:49

Домен logistrim.ru: купить в магазине доменных имен Рег.ру