Welcome Guest ( Log In | Register )

> Releases Upload / Добавление релизов

Добавить релиз тут / Click here to add release
Рекомендованные обменники / Recommended file shares

> Ingested - The Tide Of Death And Fractured Dreams (2024), Slamming Brutal Death Metal/Deathcore (D14)
post Apr 1 2024, 23:35:32
Post #1

Правь статус, ####!111
**************
Group: Металариец
Posts: 35,616
Releases: 26511
From: Г.Харьков
On Forums: 11 years 11 months
Thanks: 573201 time(s)
Ukraine


(IMG:https://metalarea.org/images/audiocovers/2024_Apr/acov_tid394928_thumb.jpg)

*Artist: Ingested
*Album: The Tide Of Death And Fractured Dreams
*Year: 2024
*Genre: Slamming Brutal Death Metal/Deathcore
*Country: United Kingdom (IMG:https://metalarea.org/forum/style_images/flags/United%20Kingdom.png)
*Format: mp3@CBR320kbps
*Size: 107MB

Tracklist:
1. Paragon of Purity 04:22
2. Endless Machine 03:37
3. Where No Light Shines 04:31
4. Expect to Fail 04:17
5. Starve the Fire 04:06
6. Numinous 03:50
7. In Nothingness 04:39
8. Pantheon 03:30
9. Kingdoms of Sand 05:23
10. A Path Once Lost 06:51
******************************
Total playing time: 45:06




Extended info
Lyn Jeffs Drums (2006-present)
See also: ex-Dark Earth, ex-Nexus Inferis, Mal, ex-Crepitation, ex-Asphyxiated (live), ex-Annotations of an Autopsy, ex-Decapity, ex-Trephined, ex-Vengeance
Sean Hynes Guitars, Vocals (backing) (2006-present)
See also: ex-Age of Suffering, ex-Crepitation, ex-Decrepit Womb, ex-Annotations of an Autopsy
Jay Evans Vocals (2006-present)
See also: ex-Age of Suffering


Technical info
(IMG:https://metalarea.org/images/spectrogram/2024_Apr/0603696f47cd69a43b0d088ba0ff6989.png)
Input File: 07. In Nothingness.mp3
Channels : 2
Sample Rate : 44100
Precision : 16-bit
Duration : 00:04:39.00 = 12303900 samples = 20925 CDDA sectors
File Size : 11.5M
Bit Rate : 331k
Sample Encoding: MPEG audio (layer I, II or III)
Comments :
Title=In Nothingness
Artist=Ingested
Album=The Tide of Death and Fractured Dreams
Tracknumber=07
Year=2024
Genre=Metal



Register


Go to the top of the page
  Insert nick Quick quote
+Quote Post
 
Start new topic
Replies (1 - 7)
post Apr 2 2024, 07:54:05
Post #2

Литр
*
Group: Подсевший
Posts: 50
Releases: 0
From: Ukraine
On Forums: 1 year 4 months
Thanks: 6 time(s)
Ukraine


Большое спасибо за загрузку! Для меня это немедленная покупка.
Go to the top of the page
  Insert nick Quick quote
+Quote Post
post Apr 2 2024, 08:19:35
Post #3

Чёткий пацан с Ветеранов
Group Icon
Group: V.I.P
Posts: 9,450
Releases: 38
From: Город над вольной Невой
On Forums: 17 years 10 months
Thanks: 4913 time(s)
Russian Federation


Еееееееееее!!!
Мои любимцы! Облога топ. Посмотрим, что они сделали)


Thanks:
(1) Occultas,
Go to the top of the page
  Insert nick Quick quote
+Quote Post
post Apr 2 2024, 10:16:41
Post #4

Чёткий пацан с Ветеранов
Group Icon
Group: V.I.P
Posts: 9,450
Releases: 38
From: Город над вольной Невой
On Forums: 17 years 10 months
Thanks: 4913 time(s)
Russian Federation


Какой прилизанный звук по первым ощущениям(( Ну как так(( Хотелось, разумеется, разноса.
Послушаю дальше, вдруг удивят (что вряд ли).
Go to the top of the page
  Insert nick Quick quote
+Quote Post
post Apr 3 2024, 17:28:45
Post #5

Девять Литров
*********
Group: Металариец
Posts: 991
Releases: 3
From: Украина
On Forums: 5 years 9 months
Thanks: 529 time(s)
Ukraine


Спасибо! Мне понравился! (IMG:style_emoticons/default/m0114.gif)


Thanks:
Go to the top of the page
  Insert nick Quick quote
+Quote Post
post Apr 15 2024, 08:09:44
Post #6

Два Литра
**
Group: Завсегдатай
Posts: 126
Releases: 0
On Forums: 15 years 10 months
Thanks: 23 time(s)
Russian Federation


местами очень качёво, а если бы ещё побольше таких жирных разухабистых соляков как во второй теме Endless Machine для меня бы сразу в топ!!!!
Go to the top of the page
  Insert nick Quick quote
+Quote Post
post Apr 15 2024, 08:15:02
Post #7

...
**************
Group: Металариец
Posts: 5,189
Releases: 513
From: МОРсквы
On Forums: 17 years 6 months
Thanks: 7860 time(s)
Russian Federation


все-таки я остаюсь при своем мнении,что первые два альбом - огонь, а остальные можно не слушать.
Go to the top of the page
  Insert nick Quick quote
+Quote Post
post Apr 15 2024, 10:26:19
Post #8

Правь статус, ####!111
**************
Group: Металариец
Posts: 2,448
Releases: 0
On Forums: 15 years 1 month
Thanks: 982 time(s)
Antarctica


Альбом очень хорош: кач, атмосферка, соло-аранжировки, звук жирный и плотный, риффы достаточно цепляющие, в общем - всё збс. Только предпоследняя тема не нужна.
Go to the top of the page
  Insert nick Quick quote
+Quote Post

Reply to this topicStart new topic
1 User(s) are reading this topic (1 Guests and 0 Anonymous Users)
0 Members:

 



- Lo-Fi Version Support form
Copyrights and abuse reports form
Time is now: 21st April 2024 - 05:56:35