Welcome Guest ( Log In | Register )

> Releases Upload / Добавление релизов

Добавить релиз тут / Click here to add release
Рекомендованные обменники / Recommended file shares

 
Reply to this topicStart new topic
> Urizen Society - Solium Ardens: The Ring Of Coagula (2023), Symphonic Black Metal
post Apr 2 2024, 03:17:34
Post #1

Правь статус, ####!111
**************
Group: Металариец
Posts: 8,682
Releases: 6929
On Forums: 13 years 5 months
Thanks: 121591 time(s)
Italy


(IMG:https://metalarea.org/images/audiocovers/2024_Apr/acov_tid394933_thumb.jpg)

*Artist: Urizen Society
*Album: Solium Ardens: The Ring Of Coagula
*Year: 2023
*Genre: Symphonic Black Metal
*Country: China (IMG:https://metalarea.org/forum/style_images/flags/China.png)
*Format: mp3@CBR320kbps
*Size: 118MB

Tracklist:
1.Oris 05:42
2.Дapшa 05:10
3.Hiisi 11:34
4.Solva 06:23
5.Coagula 06:48
6.Maladie 09:12
7.Jezebel 04:11
8.De Verville 01:01
******************************
Total playing time: 50:01



Technical info
(IMG:https://metalarea.org/images/spectrogram/2024_Apr/e3edd0eebd15cfe9894238608dfcc076.png)
Input File: 2.Дapшa.mp3
Channels : 2
Sample Rate : 44100
Precision : 16-bit
Duration : 00:05:10.25 = 13682025 samples = 23268.8 CDDA sectors
File Size : 12.9M
Bit Rate : 333k
Sample Encoding: MPEG audio (layer I, II or III)
Comments :
Title=Дapшa
Artist=Urizen Society
Album=Solium Ardens: The Ring of Coagula
Tracknumber=2/8
Year=2023
Discnumber=1/1



Register


Go to the top of the page
  Insert nick Quick quote
+Quote Post

Reply to this topicStart new topic
1 User(s) are reading this topic (1 Guests and 0 Anonymous Users)
0 Members:

 



- Lo-Fi Version Support form
Copyrights and abuse reports form
Time is now: 21st April 2024 - 06:00:37