Welcome Guest ( Log In | Register )

Объявления

* gmail.com упорно продолжает считать почту с нас "unsolicited" и отбивает в том числе и письма активации, поэтому просьба использовать альтернативные почтовые ящики.
------------
* gmail.com continues reject all mail from us as "unsolicited" (activation mails too) therefore please use alternate mail servers.

> Releases Upload / Добавление релизов

Добавить релиз тут / Click here to add release
Рекомендованные обменники / Recommended file shares

> Holyarrow - Long Live Victory (2024), Epic Black Metal (D6)
post Apr 2 2024, 10:31:05
Post #1

Правь статус, ####!111
**************
Group: Металариец
Posts: 8,958
Releases: 7194
On Forums: 13 years 6 months
Thanks: 126838 time(s)
Italy


(IMG:https://metalarea.org/images/audiocovers/2024_Apr/acov_tid394935_thumb.jpg)

*Artist: Holyarrow
*Album: Long Live Victory
*Year: 2024
*Genre: Epic Black Metal
*Country: China (IMG:https://metalarea.org/forum/style_images/flags/China.png)
*Format: mp3@CBR320kbps
*Size: 108MB

Tracklist:
1.血與榮耀 / Blood and Honor 06:51
2.壹玖壹壹·覺醒 / 1911 Han Awakening 08:09
3.吾之榮耀即吾之忠誠 / My Honor is My Loyalty 06:41
4.伍壹零 / 510 02:34
5.國魂不死 / Immortal Nation 06:18
6.空的進軍 / March to the Sky 07:23
7.勝利萬歲 / Long Live Victory 06:12
8.意誌的勝利 / Triumph of the Will 01:54
******************************
Total playing time: 46:02



Technical info
(IMG:https://metalarea.org/images/spectrogram/2024_Apr/d547f555615621e7b4c2a985bfbce2e5.png)
Input File: 5.Immortal Nation.mp3
Channels : 2
Sample Rate : 44100
Precision : 16-bit
Duration : 00:06:18.54 = 16693526 samples = 28390.4 CDDA sectors
File Size : 15.5M
Bit Rate : 327k
Sample Encoding: MPEG audio (layer I, II or III)
Comments :
Title=Immortal Nation
Artist=Holyarrow
Album=Long Live Victory
Tracknumber=5/8
Year=2024
Discnumber=1/1



Register


Go to the top of the page
  Insert nick Quick quote
+Quote Post
 
Start new topic
Replies (1 - 1)
post Apr 2 2024, 16:41:41
Post #2

Пять Литров
*****
Group: Металариец
Posts: 414
Releases: 1
From: Ingrija
On Forums: 16 years 6 months
Thanks: 380 time(s)
Russian Federation


Каждому уважающему себя бутик-лейблу нужна собственная Вотхана, ога.
Go to the top of the page
  Insert nick Quick quote
+Quote Post

Reply to this topicStart new topic
1 User(s) are reading this topic (1 Guests and 0 Anonymous Users)
0 Members:

 



- Lo-Fi Version Support form
Copyrights and abuse reports form
Time is now: 29th May 2024 - 08:38:41