Welcome Guest ( Log In | Register )

Объявления

* gmail.com упорно продолжает считать почту с нас "unsolicited" и отбивает в том числе и письма активации, поэтому просьба использовать альтернативные почтовые ящики.
------------
* gmail.com continues reject all mail from us as "unsolicited" (activation mails too) therefore please use alternate mail servers.
> Valpur - Verses Of Vile And Grim [ep] (2023), Black/Death Metal
post Apr 2 2024, 10:46:33
Post #1

Правь статус, 616
**************
Group: Металариец
Posts: 10,800
Releases: 8797
From: 55°35’N 38°08’E
On Forums: 15 years 11 months
Thanks: 156722 time(s)
Russian Federation


(IMG:https://metalarea.org/images/audiocovers/2024_Apr/acov_tid394936_thumb.jpg)

*Artist: Valpur
*Album: Verses Of Vile And Grim [ep]
*Year: 2023
*Genre: Black/Death Metal
*Country: Finland (IMG:https://metalarea.org/forum/style_images/flags/Finland.png)
*Format: mp3@CBR320kbps
*Size: 46MB

Tracklist:
1.The Putrid Icon of Pestilence 04:31
2.Nuclear Seraphim 03:30
3.Conjuration 04:45
4.Lycanthrophian Passage 04:11
******************************
Total playing time: 16:57


(IMG:https://metalarea.org/images/youtube.png)

Technical info
(IMG:https://metalarea.org/images/spectrogram/2024_Apr/01b118679e23d3578ca1792be6236e1e.png)
Input File: 01 The Putrid Icon of Pestilence.mp3
Channels : 2
Sample Rate : 44100
Precision : 16-bit
Duration : 00:04:31.20 = 11959700 samples = 20339.6 CDDA sectors
File Size : 10.9M
Bit Rate : 322k
Sample Encoding: MPEG audio (layer I, II or III)
Comments :
Title=The Putrid Icon of Pestilence
Artist=Valpur
Album=Verses of Vile and Grim
Tracknumber=1/4
Year=2023
Genre=Black Metal
Discnumber=1/1



Register


Go to the top of the page
  Insert nick Quick quote
+Quote Post
 
Start new topic
Replies (1 - 2)
post Apr 2 2024, 18:16:13
Post #2

Мегаманьяк
***********
Group: Металариец
Posts: 1,900
Releases: 26
From: Москва
On Forums: 16 years 2 months
Thanks: 1353 time(s)
Antarctica


Такое себе, прямо сказать. Если совсем прямо, то хлам.
Go to the top of the page
  Insert nick Quick quote
+Quote Post
post Apr 2 2024, 19:46:21
Post #3

Group: Дух
Posts: 1
Releases: 0
From: Hell
On Forums: 5 years 1 week
Thanks: 0 time(s)
Russian Federation


Какой хлам??? Мощь просто нереальная!!! Рифы отличные!!! Вокал супер!!!
Go to the top of the page
  Insert nick Quick quote
+Quote Post

Reply to this topicStart new topic
1 User(s) are reading this topic (1 Guests and 0 Anonymous Users)
0 Members:

 



- Lo-Fi Version Support form
Copyrights and abuse reports form
Time is now: 13th June 2024 - 08:35:11