Welcome Guest ( Log In | Register )

Объявления

* gmail.com упорно продолжает считать почту с нас "unsolicited" и отбивает в том числе и письма активации, поэтому просьба использовать альтернативные почтовые ящики.
------------
* gmail.com continues reject all mail from us as "unsolicited" (activation mails too) therefore please use alternate mail servers.

> Releases Upload / Добавление релизов

Добавить релиз тут / Click here to add release
Рекомендованные обменники / Recommended file shares

 
Reply to this topicStart new topic
> Encryptment - Mangel Fr​å​n S​ö​derort [demo] (2019), Blackened Death Metal/Crust
post Apr 2 2024, 12:49:48
Post #1

Правь статус, 616
**************
Group: Металариец
Posts: 10,771
Releases: 8772
From: 55°35’N 38°08’E
On Forums: 15 years 10 months
Thanks: 156025 time(s)
Russian Federation


(IMG:https://metalarea.org/images/audiocovers/2024_Apr/acov_tid394938_thumb.jpg)

*Artist: Encryptment
*Album: Mangel Fr​å​n S​ö​derort [demo]
*Year: 2019
*Genre: Blackened Death Metal/Crust
*Country: Sweden (IMG:https://metalarea.org/forum/style_images/flags/Sweden.png)
*Format: mp3@CBR320kbps
*Size: 20MB

Tracklist:
1.Grå Utopi 02:39
2.Min Dröm 02:33
3.Knivar Och Öppna Sår 03:09
******************************
Total playing time: 8:21



(IMG:https://metalarea.org/images/youtube.png)

Technical info
(IMG:https://metalarea.org/images/spectrogram/2024_Apr/e3f2efe1e31c7cc64ea2282c29d45fc9.png)
Input File: 01 Grå Utopi.mp3
Channels : 2
Sample Rate : 44100
Precision : 16-bit
Duration : 00:02:39.91 = 7051899 samples = 11993 CDDA sectors
File Size : 6.47M
Bit Rate : 324k
Sample Encoding: MPEG audio (layer I, II or III)
Comments :
Title=Grå Utopi
Artist=Encryptment
Album=Mangel Från Söderort
Tracknumber=1/3
Year=2019
Genre=Death Metal
Discnumber=1/1



Register


Go to the top of the page
  Insert nick Quick quote
+Quote Post

Reply to this topicStart new topic
1 User(s) are reading this topic (1 Guests and 0 Anonymous Users)
0 Members:

 



- Lo-Fi Version Support form
Copyrights and abuse reports form
Time is now: 28th May 2024 - 21:21:11