Welcome Guest ( Log In | Register )

Объявления

* gmail.com упорно продолжает считать почту с нас "unsolicited" и отбивает в том числе и письма активации, поэтому просьба использовать альтернативные почтовые ящики.
------------
* gmail.com continues reject all mail from us as "unsolicited" (activation mails too) therefore please use alternate mail servers.

> Releases Upload / Добавление релизов

Добавить релиз тут / Click here to add release
Рекомендованные обменники / Recommended file shares

 
Reply to this topicStart new topic
> Belati Tajam - Perjalanan Dimensi (2024), Death Metal/Grindcore
post Apr 2 2024, 12:56:46
Post #1

Правь статус, ####!111
**************
Group: Металариец
Posts: 35,958
Releases: 26797
From: Г.Харьков
On Forums: 12 years 2 weeks
Thanks: 581388 time(s)
Ukraine


(IMG:https://metalarea.org/images/audiocovers/2024_Apr/acov_tid394939_thumb.jpg)

*Artist: Belati Tajam
*Album: Perjalanan Dimensi
*Year: 2024
*Genre: Death Metal/Grindcore
*Country: Indonesia (IMG:https://metalarea.org/forum/style_images/flags/Indonesia.png)
*Format: mp3@CBR320kbps
*Size: 72MB

Tracklist:
01. Balyani (Perjalanan Dimensi)
02. Darah Muda
03. Fihimafihi
04. Aku Cinta Indonesia
05. Kita Persid Jember
06. Serangan Panik
07. Romansa Pecahan Martyr
08. Topeng Peradaban Murka
09. Serigala Senyap
******************************
Total playing time: 31:06



Extended info
FLAC-Rip


Technical info
(IMG:https://metalarea.org/images/spectrogram/2024_Apr/3d6fac03743161661244d9636fa675d9.png)
Input File: 04. Aku Cinta Indonesia.mp3
Channels : 2
Sample Rate : 44100
Precision : 16-bit
Duration : 00:03:34.82 = 9473518 samples = 16111.4 CDDA sectors
File Size : 8.71M
Bit Rate : 324k
Sample Encoding: MPEG audio (layer I, II or III)
Comments :
Title=Aku Cinta Indonesia
Artist=Belati Tajam
Album=Perjalanan Dimensi
Tracknumber=4/9
Year=2024
Genre=Death Metal, Grindcore
Discnumber=1/1



Register


Thanks:
Go to the top of the page
  Insert nick Quick quote
+Quote Post

Reply to this topicStart new topic
1 User(s) are reading this topic (1 Guests and 0 Anonymous Users)
0 Members:

 



- Lo-Fi Version Support form
Copyrights and abuse reports form
Time is now: 28th May 2024 - 20:59:31