Welcome Guest ( Log In | Register )

> Releases Upload / Добавление релизов

Добавить релиз тут / Click here to add release
Рекомендованные обменники / Recommended file shares

 
Reply to this topicStart new topic
> Speed Hell - Speed Violent Attack [ep] (2024), Black/Speed Metal
post Apr 2 2024, 13:20:32
Post #1

Правь статус, ####!111
**************
Group: Металариец
Posts: 35,617
Releases: 26512
From: Г.Харьков
On Forums: 11 years 11 months
Thanks: 573213 time(s)
Ukraine


(IMG:https://metalarea.org/images/audiocovers/2024_Apr/acov_tid394940_thumb.jpg)

*Artist: Speed Hell
*Album: Speed Violent Attack [ep]
*Year: 2024
*Genre: Black/Speed Metal
*Country: Argentina (IMG:https://metalarea.org/forum/style_images/flags/Argentina.png)
*Format: mp3@CBR320kbps
*Size: 23MB

Tracklist:
1. Speed Violent Attack 03:01
2. Nekrovomit 03:21
3. Alcoholocaust 03:27
******************************
Total playing time: 9:49




Extended info
Rolfi 666 Vocals, Guitars, Bass
See also: El Profanador


Technical info
(IMG:https://metalarea.org/images/spectrogram/2024_Apr/bc7f94a67feb8eb483d67c0be7610ef5.png)
Input File: 03 - Alcoholocaust.mp3
Channels : 2
Sample Rate : 44100
Precision : 16-bit
Duration : 00:03:27.00 = 9128700 samples = 15525 CDDA sectors
File Size : 8.46M
Bit Rate : 327k
Sample Encoding: MPEG audio (layer I, II or III)
Comments :
Title=Alcoholocaust
Artist=Speed Hell
Album=Speed Violent Attack
Tracknumber=3
Year=2024-03-03
Genre=ロック
Discnumber=1



Register


Go to the top of the page
  Insert nick Quick quote
+Quote Post

Reply to this topicStart new topic
1 User(s) are reading this topic (1 Guests and 0 Anonymous Users)
0 Members:

 



- Lo-Fi Version Support form
Copyrights and abuse reports form
Time is now: 21st April 2024 - 06:35:41