Welcome Guest ( Log In | Register )

Объявления

* gmail.com упорно продолжает считать почту с нас "unsolicited" и отбивает в том числе и письма активации, поэтому просьба использовать альтернативные почтовые ящики.
------------
* gmail.com continues reject all mail from us as "unsolicited" (activation mails too) therefore please use alternate mail servers.

> Releases Upload / Добавление релизов

Добавить релиз тут / Click here to add release
Рекомендованные обменники / Recommended file shares

 
Reply to this topicStart new topic
> Evasor - Into The Xorizaion [ep] (2024), Speed/Thrash Metal/Punk
post Apr 2 2024, 13:41:33
Post #1

Правь статус, ####!111
**************
Group: Металариец
Posts: 35,958
Releases: 26797
From: Г.Харьков
On Forums: 12 years 2 weeks
Thanks: 581382 time(s)
Ukraine


(IMG:https://metalarea.org/images/audiocovers/2024_Apr/acov_tid394941_thumb.jpg)

*Artist: Evasor
*Album: Into The Xorizaion [ep]
*Year: 2024
*Genre: Speed/Thrash Metal/Punk
*Country: Chile (IMG:https://metalarea.org/forum/style_images/flags/Chile.png)
*Format: mp3@CBR320kbps
*Size: 38MB

Tracklist:
1. Este año no hay cosecha 03:44
2. Degrindwan (Laverde) 03:20
3. Traición antisocial 03:17
4. Hotel 5 calaveras 03:11
5. Kiling cenetas 02:40
******************************
Total playing time: 16:12



Extended info
David Urbina Bass (2019-present)
Pablo Santidrián Drums (2019-present)
See also: Dezaztre Natural, Levantamuerto, Sin Salida, Zaumerio en la Tumba, ex-Vadca
Jose Tomas Riquelme Prado Guitars, Vocals (2019-present)
See also: Levantamuerto, Faltan Moneys, Üden, ex-Avenida XxX


Technical info
(IMG:https://metalarea.org/images/spectrogram/2024_Apr/98adb5dadca545d391f944c6a60ad9c8.png)
Input File: 02 - Degrindwan (Laverde).mp3
Channels : 2
Sample Rate : 44100
Precision : 16-bit
Duration : 00:03:20.00 = 8820000 samples = 15000 CDDA sectors
File Size : 8.24M
Bit Rate : 330k
Sample Encoding: MPEG audio (layer I, II or III)
Comments :
Title=Degrindwan (Laverde)
Artist=Evasor
Album=Into the Xorizaion
Tracknumber=2
Year=2024-01-28
Genre=メタル
Discnumber=1



Register


Go to the top of the page
  Insert nick Quick quote
+Quote Post

Reply to this topicStart new topic
2 User(s) are reading this topic (2 Guests and 0 Anonymous Users)
0 Members:

 



- Lo-Fi Version Support form
Copyrights and abuse reports form
Time is now: 28th May 2024 - 20:25:54