Welcome Guest ( Log In | Register )

Объявления

* gmail.com упорно продолжает считать почту с нас "unsolicited" и отбивает в том числе и письма активации, поэтому просьба использовать альтернативные почтовые ящики.
------------
* gmail.com continues reject all mail from us as "unsolicited" (activation mails too) therefore please use alternate mail servers.

> Releases Upload / Добавление релизов

Добавить релиз тут / Click here to add release
Рекомендованные обменники / Recommended file shares

 
Reply to this topicStart new topic
> Eveth - Sellando El Destino (2024), Heavy/Power Metal (D4)
post Apr 2 2024, 17:16:42
Post #1

Правь статус, ####!111
**************
Group: Металариец
Posts: 35,634
Releases: 26525
From: Г.Харьков
On Forums: 11 years 11 months
Thanks: 573591 time(s)
Ukraine


(IMG:https://metalarea.org/images/audiocovers/2024_Apr/acov_tid394944_thumb.jpg)

*Artist: Eveth
*Album: Sellando El Destino
*Year: 2024
*Genre: Heavy/Power Metal
*Country: Spain (IMG:https://metalarea.org/forum/style_images/flags/Spain.png)
*Format: mp3@CBR320kbps
*Size: 117MB

Tracklist:
1. Un nuevo mundo 04:00
2. Despiértame 03:24
3. Aunque me cueste la piel 03:38
4. Hijos de las estrellas 05:01
5. Mi verdad 04:11
6. Dueña del amanecer 03:52
7. Aprendiendo a partir 04:08
8. Lazos rotos 03:20
9. Espejo de luna 04:17
10. El mandato 04:00
11. Versos al diablo 04:36
12. Viento y fuego 05:13
******************************
Total playing time: 49:40



Extended info
David Kamstedt Guitars, Vocals
David Dalmau Vocals (lead)
See also: ex-Debland
Biel Recio Bass (2016-present)
See also: ex-Hyde XXI
Toni Recio Guitars (2016-present)
See also: ex-Mr. Hyde, ex-Hyde XXI
Alberto Barrientos Drums (2021-present)
See also: Inferitvm, Talaiot, ex-Strangled, Necrocosmos, ex-Æolian, ex-Decomposed Torso, ex-Desmodus, ex-Hollow Life, ex-Thrownaway


Technical info
(IMG:https://metalarea.org/images/spectrogram/2024_Apr/e3171b6c4285279d8f43f64d0958ae6d.png)
Input File: 07 - Aprendiendo a Partir.mp3
Channels : 2
Sample Rate : 44100
Precision : 16-bit
Duration : 00:04:08.00 = 10936800 samples = 18600 CDDA sectors
File Size : 10.2M
Bit Rate : 328k
Sample Encoding: MPEG audio (layer I, II or III)
Comments :
Title=Aprendiendo a Partir
Artist=Eveth
Album=Sellando el Destino
Tracknumber=7
Year=2024-04-03
Genre=メタル
Discnumber=1



Register


Go to the top of the page
  Insert nick Quick quote
+Quote Post

Reply to this topicStart new topic
2 User(s) are reading this topic (2 Guests and 0 Anonymous Users)
0 Members:

 



- Lo-Fi Version Support form
Copyrights and abuse reports form
Time is now: 23rd April 2024 - 09:48:09