Welcome Guest ( Log In | Register )

Объявления

* gmail.com упорно продолжает считать почту с нас "unsolicited" и отбивает в том числе и письма активации, поэтому просьба использовать альтернативные почтовые ящики.
------------
* gmail.com continues reject all mail from us as "unsolicited" (activation mails too) therefore please use alternate mail servers.

> Releases Upload / Добавление релизов

Добавить релиз тут / Click here to add release
Рекомендованные обменники / Recommended file shares

 
Reply to this topicStart new topic
> Scolos - ArthroGod (2024), Blackened Old School Death Metal
post Apr 2 2024, 18:12:33
Post #1

Правь статус, ####!111
**************
Group: Металариец
Posts: 35,962
Releases: 26798
From: Г.Харьков
On Forums: 12 years 2 weeks
Thanks: 581427 time(s)
Ukraine


(IMG:https://metalarea.org/images/audiocovers/2024_Apr/acov_tid394946_thumb.jpg)

*Artist: Scolos
*Album: ArthroGod
*Year: 2024
*Genre: Blackened Old School Death Metal
*Country: Bulgaria (IMG:https://metalarea.org/forum/style_images/flags/Bulgaria.png)
*Format: mp3@CBR320kbps
*Size: 99MB

Tracklist:
1. Intro
2. Progression Towards Divinity
3. Domain of Shadows
4. March of the Firespawn
5. The Undead
6. ArthroGod
7. Funereal Void
8. Obscure Anthropogenesis
9. Dawn of Singularity
10. Solar Winds
11. Shrine of Desolate Souls
12. Divine Madness
******************************
Total playing time: 41:51




Extended info
Velin Valchev Drums (2014-present)
See also: Black:I, The Revenge Project, ex-Hellrider
Yavor Mechev Guitars (2015-2018, 2024-present)
See also: Facepalm Death, Vokyl, Warscum, ex-Demenzia, ex-Khanъ, ex-T-Show, ex-The Lost Underdogs
Giuliano Bankov Guitars (2016-present)
See also: Black:I, Gods of Ancient, ex-Insanity Redefined, ex-Hellrider
Kveldulf Vocals (2017-present)
See also: Impenitence, Occultum, ex-The Benegesserit, The Dead Frequency
Luxferre Bass (2024-present)
See also: Corporal Blast, ex-Vultur


Technical info
(IMG:https://metalarea.org/images/spectrogram/2024_Apr/46a63c40def570001adb22a5f191381e.png)
Input File: Scolos - ArthroGod - 09. Dawn of Singularity.mp3
Channels : 2
Sample Rate : 44100
Precision : 16-bit
Duration : 00:03:40.80 = 9737368 samples = 16560.1 CDDA sectors
File Size : 9.00M
Bit Rate : 326k
Sample Encoding: MPEG audio (layer I, II or III)
Comments :
Title=Dawn of Singularity
Artist=Scolos
Album=ArthroGod
Tracknumber=9
Year=2024
Genre=Metal



Register


Go to the top of the page
  Insert nick Quick quote
+Quote Post

Reply to this topicStart new topic
1 User(s) are reading this topic (1 Guests and 0 Anonymous Users)
0 Members:

 



- Lo-Fi Version Support form
Copyrights and abuse reports form
Time is now: 29th May 2024 - 10:30:39