Welcome Guest ( Log In | Register )

Объявления

* gmail.com упорно продолжает считать почту с нас "unsolicited" и отбивает в том числе и письма активации, поэтому просьба использовать альтернативные почтовые ящики.
------------
* gmail.com continues reject all mail from us as "unsolicited" (activation mails too) therefore please use alternate mail servers.

> Releases Upload / Добавление релизов

Добавить релиз тут / Click here to add release
Рекомендованные обменники / Recommended file shares

 
Reply to this topicStart new topic
> The Device - The Spot [ep] (2024), Instrumental Psychedelic Stoner/Doom Metal
post Apr 2 2024, 18:14:12
Post #1

Правь статус, ####!111
**************
Group: Металариец
Posts: 7,566
Releases: 6920
From: Одесса
On Forums: 15 years 11 months
Thanks: 80639 time(s)
Ukraine


(IMG:https://metalarea.org/images/audiocovers/2024_Apr/acov_tid394947_thumb.jpg)

*Artist: The Device
*Album: The Spot [ep]
*Year: 2024
*Genre: Instrumental Psychedelic Stoner/Doom Metal
*Country: Poland (IMG:https://metalarea.org/forum/style_images/flags/Poland.png)
*Format: mp3@CBR320kbps
*Size: 86MB

Tracklist:
1. Samosieja 12:37
2. Miedzyń haze 13:26
3. Sahara 10:34
******************************
Total playing time: 36:37



Technical info
(IMG:https://metalarea.org/images/spectrogram/2024_Apr/fd93572e07095000d4bd94e786636c65.png)
Input File: 02. Miedzyń Haze.mp3
Channels : 2
Sample Rate : 44100
Precision : 16-bit
Duration : 00:13:26.60 = 35571236 samples = 60495.3 CDDA sectors
File Size : 32.3M
Bit Rate : 320k
Sample Encoding: MPEG audio (layer I, II or III)
Comments :
Title=Miedzyn Haze
Artist=The Device
Album=The Spot (EP)
Tracknumber=2
Year=2024
Genre=Psychedelic Stoner | Doom Metal



Register


Go to the top of the page
  Insert nick Quick quote
+Quote Post

Reply to this topicStart new topic
1 User(s) are reading this topic (1 Guests and 0 Anonymous Users)
0 Members:

 



- Lo-Fi Version Support form
Copyrights and abuse reports form
Time is now: 29th May 2024 - 09:26:30