Welcome Guest ( Log In | Register )

Объявления

* gmail.com упорно продолжает считать почту с нас "unsolicited" и отбивает в том числе и письма активации, поэтому просьба использовать альтернативные почтовые ящики.
------------
* gmail.com continues reject all mail from us as "unsolicited" (activation mails too) therefore please use alternate mail servers.

> 

Здесь релизы с живыми прямыми ссылками на lossless

 
Reply to this topicStart new topic
> Trencheard - Nāve Zinātnes Vārdā [ep] (2024), Blackened Death Metal
post Apr 2 2024, 18:37:50
Post #1

Правь статус, ####!111
**************
Group: Металариец
Posts: 7,541
Releases: 6899
From: Одесса
On Forums: 15 years 11 months
Thanks: 80299 time(s)
Ukraine


(IMG:https://metalarea.org/images/audiocovers/2024_Apr/acov_tid394948_thumb.jpg)

*Artist: Trencheard
*Album: Nāve Zinātnes Vārdā [ep]
*Year: 2024
*Genre: Blackened Death Metal
*Country: Latvia (IMG:https://metalarea.org/forum/style_images/flags/Latvia.png)
*Format: flac
*Size: 108MB

Tracklist:
1. Piesārņotā Paradīze 03:04
2. Atrocities of the Rising Sun 05:02
3. Liepājas Malkas Deficīts / Ielu Zīdītāji 04:30
4. Welcome to My Lai 03:31
******************************
Total playing time: 16:07



Extended info
Line - up:

Pēteris Jankovskis - Bass, Vocals
Aleksis Rupeiks - Drums
Regnārs Āva - Guitars (lead)
Aleksandrs Rodionovs - Guitars (rhythm)


Technical info
(IMG:https://metalarea.org/images/spectrogram/2024_Apr/d55b0d3ee48721defe2e1e6a93b64998.png)
Input File: 02. Atrocities of the Rising Sun.flac
Channels : 2
Sample Rate : 44100
Precision : 16-bit
Duration : 00:05:02.49 = 13339781 samples = 22686.7 CDDA sectors
File Size : 31.9M
Bit Rate : 844k
Sample Encoding: 16-bit FLAC
Comments :
Url=https://www.qobuz.com/fr-fr/album/nave-zinatnes-varda-trencheard/ikj66gfsj3ila
Title=Atrocities of the Rising Sun
TrackNumber=02
Copyright=2024 6768504 Records DK
Album=Nāve Zinātnes Vārdā (EP)
Genre=Blackened Death Metal
Artist=Trencheard
Album Artist=Trencheard
ISRC=QZHNA2437906
Date=2024
Organization=6768504 Records DK
INVOLVEDPEOPLE=Aleksis Rupeiks, Lyricist - Trencheard, MainArtist
ITUNESADVISORY=0
LABEL=6768504 Records DK
MEDIATYPE=album
UPC=0198470516616
Description=



Register


Thanks:
Go to the top of the page
  Insert nick Quick quote
+Quote Post

Reply to this topicStart new topic
1 User(s) are reading this topic (1 Guests and 0 Anonymous Users)
0 Members:

 



- Lo-Fi Version Support form
Copyrights and abuse reports form
Time is now: 18th May 2024 - 01:33:21