Welcome Guest ( Log In | Register )

> Releases Upload / Добавление релизов

Добавить релиз тут / Click here to add release
Рекомендованные обменники / Recommended file shares

 
Reply to this topicStart new topic
> Genophobic Perversion - Amassed Putrefied Remains (2024), Death Metal/Grindcore/Goregrind/Noise (D42)
post Apr 2 2024, 18:50:16
Post #1

Правь статус, ####!111
**************
Group: Металариец
Posts: 7,459
Releases: 6827
From: Одесса
On Forums: 15 years 10 months
Thanks: 79446 time(s)
Ukraine


(IMG:https://metalarea.org/images/audiocovers/2024_Apr/acov_tid394949_thumb.jpg)

*Artist: Genophobic Perversion
*Album: Amassed Putrefied Remains
*Year: 2024
*Genre: Death Metal/Grindcore/Goregrind/Noise
*Country: United States (IMG:https://metalarea.org/forum/style_images/flags/United%20States.png)
*Format: mp3@CBR320kbps
*Size: 68MB

Tracklist:
1. Ran Over by a Garbage Truck (On Purpose) 00:39
2. Sickened by the Familiar Stench 00:41
3. Amassed Putrefied Remains 00:50
4. Bubbling Pool of Pulp-Like Human Remains Soaking in Acid and Drain Declogger 01:00
5. Fingers Down the Throat in Order to Extract Vomit 01:33
6. Endless Inescapable Realm of Sewage 01:37
7. Degloved Apendages (Fried Up and Force-Fed) 00:44
8. Sliced Open with a Soda Can 00:45
9. Your Head Would Look Great On My Wall (The Most Dangerous Game) 01:00
10. Organs Inevitably Removed 00:41
11. Beaten Within an Inch of Your Life (And Then Some) 01:09
12. The Entirety of a Human Life Condensed Into One Minute and Twenty-Three Seconds 01:23
13. Aerobics Accident (Snapped in Two) 01:11
14. Skull Grater Applied as I Dig for Brains 01:39
15. Preemtively Issued Death Certificate 01:17
16. Climbing into a Jet Engine Just To Feel The Rush of Air (And Recieving Much More Than I Bargained For) 01:09
17. Paint Found in the Stomach of the Corpse 02:56
18. Surrounded by Endless Screens of Gore (Part One: Pleasures of the Sadistic Variety) 00:47
19. Stuck in a Meat Locker and Frozen for One Thousand Years 00:21
20. Brain Implosion Induced Via Rapid Vibrations 01:21
21. Your Body Ground Into Powder and Placed in Tea Bags 01:09
22. Cannibal Cravings Satiated in a Four Course Meal 01:17
23. The Full Extent of the Mutilation Was Unexplainable 01:11
24. Surrounded by Endless Screens of Gore (Part Two: Pleasures of the Masochistic Variety) 01:32
25. Carved Up and Left in the Desert for Vultures to Feast on Your Corpse 00:58
26. Covered with Faeces as Decoration (Last Days of Humanity) 00:40
******************************
Total playing time: 29:30



Extended info
WEB FLAC RIP


Technical info
(IMG:https://metalarea.org/images/spectrogram/2024_Apr/322a593323e87d91a7251020ea6c75df.png)
Input File: 02. Sickened by the Familiar Stench.mp3
Channels : 2
Sample Rate : 44100
Precision : 16-bit
Duration : 00:00:41.51 = 1830767 samples = 3113.55 CDDA sectors
File Size : 1.66M
Bit Rate : 321k
Sample Encoding: MPEG audio (layer I, II or III)
Comments :
Title=Sickened by the Familiar Stench
Artist=Genophobic Perversion
Album=Amassed Putrefied Remains
Tracknumber=2
Year=2024
Genre=Various



Register


Thanks:
Go to the top of the page
  Insert nick Quick quote
+Quote Post

Reply to this topicStart new topic
1 User(s) are reading this topic (1 Guests and 0 Anonymous Users)
0 Members:

 



- Lo-Fi Version Support form
Copyrights and abuse reports form
Time is now: 21st April 2024 - 06:24:13