Welcome Guest ( Log In | Register )

Объявления

* gmail.com упорно продолжает считать почту с нас "unsolicited" и отбивает в том числе и письма активации, поэтому просьба использовать альтернативные почтовые ящики.
------------
* gmail.com continues reject all mail from us as "unsolicited" (activation mails too) therefore please use alternate mail servers.

> Releases Upload / Добавление релизов

Добавить релиз тут / Click here to add release
Рекомендованные обменники / Recommended file shares

 
Reply to this topicStart new topic
> Aequorea - Departure (2024), Doom/Post-Metal
post Apr 2 2024, 19:11:01
Post #1

Правь статус, ####!111
**************
Group: Металариец
Posts: 35,634
Releases: 26525
From: Г.Харьков
On Forums: 11 years 11 months
Thanks: 573593 time(s)
Ukraine


(IMG:https://metalarea.org/images/audiocovers/2024_Apr/acov_tid394950_thumb.jpg)

*Artist: Aequorea
*Album: Departure
*Year: 2024
*Genre: Doom/Post-Metal
*Country: United States (IMG:https://metalarea.org/forum/style_images/flags/United%20States.png)
*Format: mp3@CBR320kbps
*Size: 93MB

Tracklist:
1. Cursed
2. Translucent Maze
3. Breathing Tower
4. Illusions in Bardo
5. Voices of the Fog
******************************
Total playing time: 40:53




Extended info
Clay Powers Drums, Vocals
See also: Offering to the Sun, ex-The River Runs Black
James Bratt Guitars, Vocals
See also: Desiccation
Falon Stoval Bass, Vocals (2009-present)


Technical info
(IMG:https://metalarea.org/images/spectrogram/2024_Apr/04f82edc00e6d419c23349b2770ad967.png)
Input File: 04 - Illusions in Bardo.mp3
Channels : 2
Sample Rate : 44100
Precision : 16-bit
Duration : 00:09:39.17 = 25541353 samples = 43437.7 CDDA sectors
File Size : 23.2M
Bit Rate : 320k
Sample Encoding: MPEG audio (layer I, II or III)
Comments :
Title=Illusions in Bardo
Artist=Aequorea
Album=Departure
Tracknumber=4
Year=2024



Register


Go to the top of the page
  Insert nick Quick quote
+Quote Post

Reply to this topicStart new topic
2 User(s) are reading this topic (2 Guests and 0 Anonymous Users)
0 Members:

 



- Lo-Fi Version Support form
Copyrights and abuse reports form
Time is now: 23rd April 2024 - 10:04:45