Welcome Guest ( Log In | Register )

Объявления

* gmail.com упорно продолжает считать почту с нас "unsolicited" и отбивает в том числе и письма активации, поэтому просьба использовать альтернативные почтовые ящики.
------------
* gmail.com continues reject all mail from us as "unsolicited" (activation mails too) therefore please use alternate mail servers.
 
Reply to this topicStart new topic
> Septos - Necroxia [ep] (2024), Death Metal/Goregrind
post Apr 2 2024, 19:11:03
Post #1

Правь статус, ####!111
**************
Group: Металариец
Posts: 7,613
Releases: 6964
From: Одесса
On Forums: 16 years 1 week
Thanks: 81224 time(s)
Ukraine


(IMG:https://metalarea.org/images/audiocovers/2024_Apr/acov_tid394951_thumb.jpg)

*Artist: Septos
*Album: Necroxia [ep]
*Year: 2024
*Genre: Death Metal/Goregrind
*Country: Argentina (IMG:https://metalarea.org/forum/style_images/flags/Argentina.png)
*Format: flac
*Size: 59MB

Tracklist:
1. Verdugos Sangrientos 01:29
2. Putrefactos 03:05
3. Mis Hijos Necrófagos 03:22
******************************
Total playing time: 7:56

Extended info
Line - up:

Cóndor Gómez - Drums
Emanuel Balmaceda - Guitars
Yxmil Mercado - Vocals



Technical info
(IMG:https://metalarea.org/images/spectrogram/2024_Apr/414b697549918a4385c7d47654ca070b.png)
Input File: 02. Putrefactos.flac
Channels : 2
Sample Rate : 44100
Precision : 16-bit
Duration : 00:03:05.64 = 8186506 samples = 13922.6 CDDA sectors
File Size : 21.6M
Bit Rate : 930k
Sample Encoding: 16-bit FLAC
Comments :
Url=https://www.qobuz.com/fr-fr/album/necroxia-septos/n1xwrjt7mdula
Title=Putrefactos
TrackNumber=2
Copyright=2024 SEPTOS 2024 SEPTOS
Album=Necroxia (EP)
Genre=Death Metal
Artist=Septos
Album Artist=Septos
ISRC=TCAHU2489632
Date=2024
Composer=Emanuel Balmaceda
Composer=Esteban Funes
Organization=Septos
INVOLVEDPEOPLE=Emanuel Balmaceda, Songwriter, ComposerLyricist - Esteban Funes, Songwriter, ComposerLyricist - SEPTOS, MainArtist
ITUNESADVISORY=0
LABEL=Septos
MEDIATYPE=album
UPC=0859783128803
Description=



Register


Go to the top of the page
  Insert nick Quick quote
+Quote Post

Reply to this topicStart new topic
1 User(s) are reading this topic (1 Guests and 0 Anonymous Users)
0 Members:

 



- Lo-Fi Version Support form
Copyrights and abuse reports form
Time is now: 13th June 2024 - 07:50:13