Welcome Guest ( Log In | Register )

Объявления

* gmail.com упорно продолжает считать почту с нас "unsolicited" и отбивает в том числе и письма активации, поэтому просьба использовать альтернативные почтовые ящики.
------------
* gmail.com continues reject all mail from us as "unsolicited" (activation mails too) therefore please use alternate mail servers.

> Releases Upload / Добавление релизов

Добавить релиз тут / Click here to add release
Рекомендованные обменники / Recommended file shares

> Vanessa Funke - Remains (2024), Melodic Death/Gothic Metal (D10)
post Apr 2 2024, 19:25:07
Post #1

Правь статус, ####!111
**************
Group: Металариец
Posts: 7,573
Releases: 6926
From: Одесса
On Forums: 15 years 11 months
Thanks: 80690 time(s)
Ukraine


(IMG:https://metalarea.org/images/audiocovers/2024_Apr/acov_tid394952_thumb.jpg)

*Artist: Vanessa Funke
*Album: Remains
*Year: 2024
*Genre: Melodic Death/Gothic Metal
*Country: Germany (IMG:https://metalarea.org/forum/style_images/flags/Germany.png)
*Format: mp3@CBR320kbps
*Size: 144MB

Tracklist:
1. Shattered Visions 05:28
2. Winter 06:15
3. Demons 03:56
4. New Dawn Rising 04:01
5. Road to Nowhere 06:13
6. Recurring Dreams 05:45
7. Silent Descent 05:17
8. Bloodshed Inferno 03:50
9. Eradicate the Enemy 04:13
10. Yearning 04:31
11. A New Day 02:07
12. Festung 08:45
******************************
Total playing time: 1:00:21



Extended info
BANDCAMP FLAC RIP


Technical info
(IMG:https://metalarea.org/images/spectrogram/2024_Apr/9465720691e3162983ac2e8260538ff6.png)
Input File: 02. Winter.mp3
Channels : 2
Sample Rate : 44100
Precision : 16-bit
Duration : 00:06:15.80 = 16572560 samples = 28184.6 CDDA sectors
File Size : 15.0M
Bit Rate : 320k
Sample Encoding: MPEG audio (layer I, II or III)
Comments :
Title=Winter
Artist=Vanessa Funke
Album=Remains
Tracknumber=2
Year=2024
Genre=Melodic Death | Gothic Metal



Register


Go to the top of the page
  Insert nick Quick quote
+Quote Post
 
Start new topic
Replies (1 - 3)
post Apr 2 2024, 21:31:07
Post #2

Пять Литров
*****
Group: Металариец
Posts: 473
Releases: 0
From: Калуга
On Forums: 6 years 4 months
Thanks: 170 time(s)
Russian Federation


All songs, instruments and voices: Vanessa Funke
One woman проект.
Go to the top of the page
  Insert nick Quick quote
+Quote Post
post Apr 3 2024, 16:51:48
Post #3

Литр
*
Group: Подсевший
Posts: 61
Releases: 0
On Forums: 16 years 8 months
Thanks: 7 time(s)
Ukraine


ЦИТАТА(rominow @ Apr 2 2024, 23:31:07) *
All songs, instruments and voices: Vanessa Funke
One woman проект.

Поет явно какой то мужик.
Но материал интересный.
Go to the top of the page
  Insert nick Quick quote
+Quote Post
post Apr 9 2024, 14:12:13
Post #4

Common dweller of hell
**************
Group: Металариец
Posts: 5,397
Releases: 12
From: Dnipro
On Forums: 15 years 10 months
Thanks: 2198 time(s)
Ukraine


ЦИТАТА(emp8080 @ Apr 3 2024, 18:51:48) *
Поет явно какой то мужик.
Поет она, слышно ведь что тетка на вокале (IMG:style_emoticons/default/23.gif)
Go to the top of the page
  Insert nick Quick quote
+Quote Post

Reply to this topicStart new topic
1 User(s) are reading this topic (1 Guests and 0 Anonymous Users)
0 Members:

 



- Lo-Fi Version Support form
Copyrights and abuse reports form
Time is now: 31st May 2024 - 00:18:20