Welcome Guest ( Log In | Register )

Объявления

* gmail.com упорно продолжает считать почту с нас "unsolicited" и отбивает в том числе и письма активации, поэтому просьба использовать альтернативные почтовые ящики.
------------
* gmail.com continues reject all mail from us as "unsolicited" (activation mails too) therefore please use alternate mail servers.

> Releases Upload / Добавление релизов

Добавить релиз тут / Click here to add release
Рекомендованные обменники / Recommended file shares

 
Reply to this topicStart new topic
> Watchman - Cursed (2024), Stoner/Doom Metal
post Apr 2 2024, 19:31:37
Post #1

Правь статус, ####!111
**************
Group: Металариец
Posts: 35,882
Releases: 26736
From: Г.Харьков
On Forums: 12 years 1 week
Thanks: 579378 time(s)
Ukraine


(IMG:https://metalarea.org/images/audiocovers/2024_Apr/acov_tid394953_thumb.jpg)

*Artist: Watchman
*Album: Cursed
*Year: 2024
*Genre: Stoner/Doom Metal
*Country: United States (IMG:https://metalarea.org/forum/style_images/flags/United%20States.png)
*Format: mp3@CBR320kbps
*Size: 90MB

Tracklist:
1. Too Late to Pray 08:49
2. No Peace 05:00
3. Left to Die 05:14
4. Cursed 04:37
5. He on High 05:31
6. Black Wings 03:06
7. You Will Not Be Saved 06:38
******************************
Total playing time: 38:55



Extended info
Roy Waterford Everything


Technical info
(IMG:https://metalarea.org/images/spectrogram/2024_Apr/9dba4ab6f2d6ded55c6f4bd5401bccc2.png)
Input File: 07 - You Will Not Be Saved.mp3
Channels : 2
Sample Rate : 44100
Precision : 16-bit
Duration : 00:06:38.00 = 17551800 samples = 29850 CDDA sectors
File Size : 16.1M
Bit Rate : 324k
Sample Encoding: MPEG audio (layer I, II or III)
Comments :
Title=You Will Not Be Saved
Artist=Watchman
Album=Cursed
Tracknumber=7
Year=2024-03-13
Genre=メタル
Discnumber=1



Register


Go to the top of the page
  Insert nick Quick quote
+Quote Post

Reply to this topicStart new topic
1 User(s) are reading this topic (1 Guests and 0 Anonymous Users)
0 Members:

 



- Lo-Fi Version Support form
Copyrights and abuse reports form
Time is now: 18th May 2024 - 00:46:21