Welcome Guest ( Log In | Register )

> Releases Upload / Добавление релизов

Добавить релиз тут / Click here to add release
Рекомендованные обменники / Recommended file shares

> Raptor - Manusia (2024), Heavy/Speed Metal
post Apr 2 2024, 19:50:15
Post #1

Правь статус, ####!111
**************
Group: Металариец
Posts: 35,617
Releases: 26512
From: Г.Харьков
On Forums: 11 years 11 months
Thanks: 573212 time(s)
Ukraine


(IMG:https://metalarea.org/images/audiocovers/2024_Apr/acov_tid394954_thumb.jpg)

*Artist: Raptor
*Album: Manusia
*Year: 2024
*Genre: Heavy/Speed Metal
*Country: Indonesia (IMG:https://metalarea.org/forum/style_images/flags/Indonesia.png)
*Format: mp3@CBR320kbps
*Size: 79MB

Tracklist:
01. Welcome Raptor 01:46
02. Manusia 05:26
03. Perang Saudara 04:22
04. Pangeran Serigala 05:25
05. Hidup 04:02
06. Langit Hitam 04:38
07. Musnah Dan Sirna 04:28
08. Api Kejahatan 04:06
******************************
Total playing time: 34:13

(IMG:https://metalarea.org/images/youtube.png)

Extended info
Vocal : Kiki
Guitar 1 : Raven
Guitar 2 : Ros
Bass : Bang Oye
Drum : Masbon


Technical info
(IMG:https://metalarea.org/images/spectrogram/2024_Apr/8cbc0db466cbc0eb7c6992ec9e1fae52.png)
Input File: 07 - Musnah Dan Sirna.mp3
Channels : 2
Sample Rate : 44100
Precision : 16-bit
Duration : 00:04:28.00 = 11818800 samples = 20100 CDDA sectors
File Size : 10.9M
Bit Rate : 326k
Sample Encoding: MPEG audio (layer I, II or III)
Comments :
Title=Musnah Dan Sirna
Artist=Raptor
Album=Manusia
Tracknumber=7
Year=2024-03-25
Genre=ロック
Discnumber=1



Register


Go to the top of the page
  Insert nick Quick quote
+Quote Post
 
Start new topic
Replies (1 - 2)
post Apr 2 2024, 20:43:44
Post #2

MDM-Thrash Metal
**************
Group: Металариец
Posts: 12,377
Releases: 1733
From: Одесса
On Forums: 16 years 8 months
Thanks: 40308 time(s)
Ukraine



Ну так, левоватый Динозавр.
Go to the top of the page
  Insert nick Quick quote
+Quote Post
post Apr 5 2024, 07:50:37
Post #3

Друг Уточек
*****
Group: Металариец
Posts: 436
Releases: 65
From: Гексия
On Forums: 15 years 4 months
Thanks: 339 time(s)
Russian Federation


Мне нравятся старые индонезийские Metal-Rock группы (не все конечно) но тут как-то всё вяленько... вроде что-то есть но сыграно и (особенно) спето не ахти. Разок послушать и забыть к сожалению. Спасибо за ознакомление.
Go to the top of the page
  Insert nick Quick quote
+Quote Post

Reply to this topicStart new topic
1 User(s) are reading this topic (1 Guests and 0 Anonymous Users)
0 Members:

 



- Lo-Fi Version Support form
Copyrights and abuse reports form
Time is now: 21st April 2024 - 06:30:32