Welcome Guest ( Log In | Register )

Объявления

* gmail.com упорно продолжает считать почту с нас "unsolicited" и отбивает в том числе и письма активации, поэтому просьба использовать альтернативные почтовые ящики.
------------
* gmail.com continues reject all mail from us as "unsolicited" (activation mails too) therefore please use alternate mail servers.

> Releases Upload / Добавление релизов

Добавить релиз тут / Click here to add release
Рекомендованные обменники / Recommended file shares

> The Rottening - Seeds Of Death [ep] (2024), Death Metal
post Apr 2 2024, 21:45:40
Post #1

Правь статус, ####!111
**************
Group: Металариец
Posts: 35,939
Releases: 26783
From: Г.Харьков
On Forums: 12 years 2 weeks
Thanks: 580985 time(s)
Ukraine


(IMG:https://metalarea.org/images/audiocovers/2024_Apr/acov_tid394956_thumb.jpg)

*Artist: The Rottening
*Album: Seeds Of Death [ep]
*Year: 2024
*Genre: Death Metal
*Country: Sweden (IMG:https://metalarea.org/forum/style_images/flags/Sweden.png)
*Format: mp3@CBR320kbps
*Size: 51MB

Tracklist:
1. Ode to Rot 02:32
2. Starless Void 04:15
3. Silence fo Your God 04:32
4. Maleficarum 04:10
5. Seeds of Death 05:30
******************************
Total playing time: 20:59




Extended info
Johan Thorsell Bass
See also: ex-Intestinal
Jonas Liimatainen Drums
See also: ex-Intestinal
Niklas Lindberg Guitars
See also: ex-Intestinal
Johan Widlund Guitars
See also: ex-Intestinal
Herman Hermansson Vocals
See also: Fornhem


Technical info
(IMG:https://metalarea.org/images/spectrogram/2024_Apr/cd405c8b20f77ce51f87b8a605ab671d.png)
Input File: 05. Seeds of Death.mp3
Channels : 2
Sample Rate : 44100
Precision : 16-bit
Duration : 00:05:30.00 = 14553000 samples = 24750 CDDA sectors
File Size : 13.8M
Bit Rate : 335k
Sample Encoding: MPEG audio (layer I, II or III)
Comments :
Title=Seeds of Death
Artist=The Rottening
Album=Seeds of Death
Tracknumber=05
Year=2024
Genre=Metal



Register


Go to the top of the page
  Insert nick Quick quote
+Quote Post
 
Start new topic
Replies (1 - 1)
post Apr 3 2024, 12:50:21
Post #2

MDM-Thrash Metal
**************
Group: Металариец
Posts: 12,446
Releases: 1741
From: Одесса
On Forums: 16 years 9 months
Thanks: 40433 time(s)
Ukraine


Go to the top of the page
  Insert nick Quick quote
+Quote Post

Reply to this topicStart new topic
1 User(s) are reading this topic (1 Guests and 0 Anonymous Users)
0 Members:

 



- Lo-Fi Version Support form
Copyrights and abuse reports form
Time is now: 25th May 2024 - 18:08:48