Welcome Guest ( Log In | Register )

Объявления

* gmail.com упорно продолжает считать почту с нас "unsolicited" и отбивает в том числе и письма активации, поэтому просьба использовать альтернативные почтовые ящики.
------------
* gmail.com continues reject all mail from us as "unsolicited" (activation mails too) therefore please use alternate mail servers.

> Releases Upload / Добавление релизов

Добавить релиз тут / Click here to add release
Рекомендованные обменники / Recommended file shares

> Abyssarium - Deathly And Thrashed [ep] (2024), Death/Thrash Metal
post Apr 3 2024, 05:25:36
Post #1

Правь статус, ####!111
**************
Group: Металариец
Posts: 8,703
Releases: 6949
On Forums: 13 years 5 months
Thanks: 121914 time(s)
Italy


(IMG:https://metalarea.org/images/audiocovers/2024_Apr/acov_tid394958_thumb.jpg)

*Artist: Abyssarium
*Album: Deathly And Thrashed [ep]
*Year: 2024
*Genre: Death/Thrash Metal
*Country: Chile (IMG:https://metalarea.org/forum/style_images/flags/Chile.png)
*Format: mp3@CBR320kbps
*Size: 58MB

Tracklist:
1.Paranoia (Intro) 01:12
2.Born to Be Slave 04:20
3.Trigger 05:13
4.No Regrets 03:36
5.There's No God 05:09
6.The Torture 06:01
******************************
Total playing time: 25:31

(IMG:https://metalarea.org/images/youtube.png)

Technical info
(IMG:https://metalarea.org/images/spectrogram/2024_Apr/05554dd393be43db702bd15c275555a1.png)
Input File: 2.Born to Be Slave.mp3
Channels : 2
Sample Rate : 44100
Precision : 16-bit
Duration : 00:04:18.76 = 11411316 samples = 19407 CDDA sectors
File Size : 10.6M
Bit Rate : 329k
Sample Encoding: MPEG audio (layer I, II or III)
Comments :
Title=Born to Be Slave
Artist=Abyssarium
Album=Deathly and Thrashed
Tracknumber=2/6
Year=2024
Discnumber=1/1



Register


Go to the top of the page
  Insert nick Quick quote
+Quote Post
 
Start new topic
Replies (1 - 2)
post Apr 3 2024, 10:19:45
Post #2

_ - = # Thrashogolic # = - _ ... а давайте поржём все вместе
**************
Group: Металариец
Posts: 22,234
Releases: 4444
From: 404
On Forums: 13 years 10 months
Thanks: 29009 time(s)
Ukraine


??? Abyssarium - A Deathly And Thrashered Year [ep] (2023)
Go to the top of the page
  Insert nick Quick quote
+Quote Post
post Apr 3 2024, 12:54:19
Post #3

MDM-Thrash Metal
**************
Group: Металариец
Posts: 12,392
Releases: 1733
From: Одесса
On Forums: 16 years 8 months
Thanks: 40314 time(s)
Ukraine




Go to the top of the page
  Insert nick Quick quote
+Quote Post

Reply to this topicStart new topic
1 User(s) are reading this topic (1 Guests and 0 Anonymous Users)
0 Members:

 



- Lo-Fi Version Support form
Copyrights and abuse reports form
Time is now: 23rd April 2024 - 10:11:45