Welcome Guest ( Log In | Register )

Объявления

* gmail.com упорно продолжает считать почту с нас "unsolicited" и отбивает в том числе и письма активации, поэтому просьба использовать альтернативные почтовые ящики.
------------
* gmail.com continues reject all mail from us as "unsolicited" (activation mails too) therefore please use alternate mail servers.

> Releases Upload / Добавление релизов

Добавить релиз тут / Click here to add release
Рекомендованные обменники / Recommended file shares

 
Reply to this topicStart new topic
> Undeceived - The Firstborn Of The Dead (2023), Death Metal
post Apr 3 2024, 06:28:41
Post #1

Правь статус, ####!111
**************
Group: Металариец
Posts: 8,703
Releases: 6949
On Forums: 13 years 5 months
Thanks: 121906 time(s)
Italy


(IMG:https://metalarea.org/images/audiocovers/2024_Apr/acov_tid394960_thumb.jpg)

*Artist: Undeceived
*Album: The Firstborn Of The Dead
*Year: 2023
*Genre: Death Metal
*Country: Belgium (IMG:https://metalarea.org/forum/style_images/flags/Belgium.png)
*Format: mp3@CBR320kbps
*Size: 52MB

Tracklist:
1.Guilty The Innocent 04:30
2.Dead-Empty 02:33
3.Dark Pretender 02:36
4.Subtle Incapacitation 03:11
5.The Firstborn Of The Dead 02:01
6.Sympathetic 02:28
7.Death Row 03:17
8.Anchor Escapement 01:58
******************************
Total playing time: 22:34


(IMG:https://metalarea.org/images/youtube.png)

Technical info
(IMG:https://metalarea.org/images/spectrogram/2024_Apr/90fd46f5de58774d62dc600b4a1867ee.png)
Input File: 2.Dead-Empty.mp3
Channels : 2
Sample Rate : 44100
Precision : 16-bit
Duration : 00:02:33.22 = 6756958 samples = 11491.4 CDDA sectors
File Size : 6.20M
Bit Rate : 324k
Sample Encoding: MPEG audio (layer I, II or III)
Comments :
Title=Dead-Empty
Artist=Undeceived
Album=The Firstborn of the Dead
Tracknumber=2/8
Year=2023
Discnumber=1/1



Register


Go to the top of the page
  Insert nick Quick quote
+Quote Post

Reply to this topicStart new topic
1 User(s) are reading this topic (1 Guests and 0 Anonymous Users)
0 Members:

 



- Lo-Fi Version Support form
Copyrights and abuse reports form
Time is now: 23rd April 2024 - 09:41:04