Welcome Guest ( Log In | Register )

Объявления

* gmail.com упорно продолжает считать почту с нас "unsolicited" и отбивает в том числе и письма активации, поэтому просьба использовать альтернативные почтовые ящики.
------------
* gmail.com continues reject all mail from us as "unsolicited" (activation mails too) therefore please use alternate mail servers.

> Releases Upload / Добавление релизов

Добавить релиз тут / Click here to add release
Рекомендованные обменники / Recommended file shares

 
Reply to this topicStart new topic
> Burning Legion - En Sabah Nur (2024), Death/Groove Metal
post Apr 3 2024, 08:24:51
Post #1

Правь статус, ####!111
**************
Group: Металариец
Posts: 8,958
Releases: 7194
On Forums: 13 years 6 months
Thanks: 126844 time(s)
Italy


(IMG:https://metalarea.org/images/audiocovers/2024_Apr/acov_tid394964_thumb.jpg)

*Artist: Burning Legion
*Album: En Sabah Nur
*Year: 2024
*Genre: Death/Groove Metal
*Country: United States (IMG:https://metalarea.org/forum/style_images/flags/United%20States.png)
*Format: mp3@CBR320kbps
*Size: 80MB

Tracklist:
01.Fear No God 05:12
02.Burning Legion 06:24
03.I am Domination 04:37
04.Injustice Pt. 1 03:45
05.Injustice Pt. 2 04:02
06.Power Beyond Death 05:12
07.I'll Cast a Shadow 05:04
******************************
Total playing time: 34:16

(IMG:https://metalarea.org/images/youtube.png)
Preview 2

Technical info
(IMG:https://metalarea.org/images/spectrogram/2024_Apr/ed855cd8adacdcbc167148f5925c50a4.png)
Input File: 5.Injustice Pt. 2.mp3
Channels : 2
Sample Rate : 44100
Precision : 16-bit
Duration : 00:04:02.46 = 10692442 samples = 18184.4 CDDA sectors
File Size : 9.98M
Bit Rate : 329k
Sample Encoding: MPEG audio (layer I, II or III)
Comments :
Title=Injustice Pt. 2
Artist=Burning Legion
Album=En Sabah Nur
Tracknumber=5/7
Year=2024
Discnumber=1/1



Register


Go to the top of the page
  Insert nick Quick quote
+Quote Post

Reply to this topicStart new topic
1 User(s) are reading this topic (1 Guests and 0 Anonymous Users)
0 Members:

 



- Lo-Fi Version Support form
Copyrights and abuse reports form
Time is now: 29th May 2024 - 10:23:37