Welcome Guest ( Log In | Register )

Объявления

* gmail.com упорно продолжает считать почту с нас "unsolicited" и отбивает в том числе и письма активации, поэтому просьба использовать альтернативные почтовые ящики.
------------
* gmail.com continues reject all mail from us as "unsolicited" (activation mails too) therefore please use alternate mail servers.
> Menace - Into The Realm Of Chaos (2022), Thrash Metal (D9)
post Apr 3 2024, 11:24:45
Post #1

Правь статус, 616
**************
Group: Металариец
Posts: 10,800
Releases: 8797
From: 55°35’N 38°08’E
On Forums: 15 years 11 months
Thanks: 156736 time(s)
Russian Federation


(IMG:https://metalarea.org/images/audiocovers/2024_Apr/acov_tid394971_thumb.jpg)

*Artist: Menace
*Album: Into The Realm Of Chaos
*Year: 2022
*Genre: Thrash Metal
*Country: Brazil (IMG:https://metalarea.org/forum/style_images/flags/Brazil.png)
*Format: mp3@CBR320kbps
*Size: 75MB

Tracklist:
1.Into the Realm of Chaos 03:41
2.Lethargy 04:04
3.Useless Life 04:29
4.Curse Behind Your Fear 05:11
5.Procreation of Disease 04:20
6.Rotten Hypocrites 04:50
7.Live with Lies 04:33
******************************
Total playing time: 31:08

(IMG:https://metalarea.org/images/youtube.png)
(IMG:https://metalarea.org/images/youtube.png)

Extended info
Re-recordings of songs from the 1980s. Tracks 1-5 are re-recordings from the band's second demo (Into the Realms), track 6 is a song written in the '80s but never recorded before, and track 7 is a re-recording of a song from the band's first demo (Apostles of Violence).


Technical info
(IMG:https://metalarea.org/images/spectrogram/2024_Apr/43ae26d8e5bf4334359a5050feefed40.png)
Input File: 01 Into the Realm of Chaos.mp3
Channels : 2
Sample Rate : 44100
Precision : 16-bit
Duration : 00:03:41.59 = 9771943 samples = 16619 CDDA sectors
File Size : 9.00M
Bit Rate : 325k
Sample Encoding: MPEG audio (layer I, II or III)
Comments :
Title=Into the Realm of Chaos
Artist=Menace
Album=Into the Realm of Chaos
Tracknumber=1/7
Year=2022
Genre=Thrash Metal
Discnumber=1/1



Register


Go to the top of the page
  Insert nick Quick quote
+Quote Post
 
Start new topic
Replies (1 - 1)
post Apr 3 2024, 12:50:36
Post #2

Правь статус, 616
**************
Group: Металариец
Posts: 10,800
Releases: 8797
From: 55°35’N 38°08’E
On Forums: 15 years 11 months
Thanks: 156736 time(s)
Russian Federation


FLAC

Register


Go to the top of the page
  Insert nick Quick quote
+Quote Post

Reply to this topicStart new topic
1 User(s) are reading this topic (1 Guests and 0 Anonymous Users)
0 Members:

 



- Lo-Fi Version Support form
Copyrights and abuse reports form
Time is now: 14th June 2024 - 11:23:15