Welcome Guest ( Log In | Register )

Объявления

* gmail.com упорно продолжает считать почту с нас "unsolicited" и отбивает в том числе и письма активации, поэтому просьба использовать альтернативные почтовые ящики.
------------
* gmail.com continues reject all mail from us as "unsolicited" (activation mails too) therefore please use alternate mail servers.

> Releases Upload / Добавление релизов

Добавить релиз тут / Click here to add release
Рекомендованные обменники / Recommended file shares

 
Reply to this topicStart new topic
> Morvigor - De Spiegel [ep] (2024), Black Metal
post Apr 3 2024, 13:05:58
Post #1

Правь статус, 616
**************
Group: Металариец
Posts: 10,633
Releases: 8644
From: 55°35’N 38°08’E
On Forums: 15 years 9 months
Thanks: 153461 time(s)
Russian Federation


(IMG:https://metalarea.org/images/audiocovers/2024_Apr/acov_tid394972_thumb.jpg)

*Artist: Morvigor
*Album: De Spiegel [ep]
*Year: 2024
*Genre: Black Metal
*Country: Netherlands (IMG:https://metalarea.org/forum/style_images/flags/Netherlands.png)
*Format: mp3@CBR320kbps
*Size: 48MB

Tracklist:
1.Midden in de wereld 08:58
2.De spiegel 11:29
******************************
Total playing time: 20:27



(IMG:https://metalarea.org/images/youtube.png)

Technical info
(IMG:https://metalarea.org/images/spectrogram/2024_Apr/c660da3a287fc74aac74573966907d61.png)
Input File: 01 Midden in de wereld.mp3
Channels : 2
Sample Rate : 44100
Precision : 16-bit
Duration : 00:08:58.57 = 23751069 samples = 40393 CDDA sectors
File Size : 21.6M
Bit Rate : 321k
Sample Encoding: MPEG audio (layer I, II or III)
Comments :
Title=Midden in de wereld
Artist=Morvigor
Album=De spiegel
Tracknumber=1/2
Year=2024
Genre=Black Metal
Discnumber=1/1



Register


Go to the top of the page
  Insert nick Quick quote
+Quote Post

Reply to this topicStart new topic
2 User(s) are reading this topic (2 Guests and 0 Anonymous Users)
0 Members:

 



- Lo-Fi Version Support form
Copyrights and abuse reports form
Time is now: 23rd April 2024 - 08:35:50