Welcome Guest ( Log In | Register )

Объявления

* gmail.com упорно продолжает считать почту с нас "unsolicited" и отбивает в том числе и письма активации, поэтому просьба использовать альтернативные почтовые ящики.
------------
* gmail.com continues reject all mail from us as "unsolicited" (activation mails too) therefore please use alternate mail servers.

> Releases Upload / Добавление релизов

Добавить релиз тут / Click here to add release
Рекомендованные обменники / Recommended file shares

> Concrete Age - Motherland (2024), Melodic Death/Thrash/Power/Folk Metal (D9)
post Apr 3 2024, 13:06:08
Post #1

Правь статус, ####!111
**************
Group: Металариец
Posts: 35,634
Releases: 26525
From: Г.Харьков
On Forums: 11 years 11 months
Thanks: 573584 time(s)
Ukraine


(IMG:https://metalarea.org/images/audiocovers/2024_Apr/acov_tid394973_thumb.jpg)

*Artist: Concrete Age
*Album: Motherland
*Year: 2024
*Genre: Melodic Death/Thrash/Power/Folk Metal
*Country: Russian Federation (IMG:https://metalarea.org/forum/style_images/flags/Russian%20Federation.png)
*Format: mp3@CBR320kbps
*Size: 101MB

Tracklist:
1. Raida Rada 04:43
2. Battle for the Caucasus 03:36
3. Mestizo 03:49
4. Nomads 04:52
5. Mouth of the Elbrus 03:53
6. Kara Kol 03:11
7. Shalaho 02:30 instrumental
8. Cossack's Pride 05:36
9. Adeghaga 04:56
10. Hasbulat 04:58
******************************
Total playing time: 42:04




Extended info
Frosty J Vocals, Guitars, Zurna, Baglama
Boris Zahariev Guitars
Erick Red Bass
Davide Marini Drums


Technical info
(IMG:https://metalarea.org/images/spectrogram/2024_Apr/7685574fc6eef695395d4e6ab5828a5a.png)
Input File: 08 - Cossack`s Pride.mp3
Channels : 2
Sample Rate : 44100
Precision : 16-bit
Duration : 00:05:36.00 = 14817600 samples = 25200 CDDA sectors
File Size : 13.9M
Bit Rate : 330k
Sample Encoding: MPEG audio (layer I, II or III)
Comments :
Title=Cossack`s Pride
Artist=Concrete Age
Album=Motherland
Tracknumber=8
Year=2024-04-04
Genre=Metal
Discnumber=1



Register


Go to the top of the page
  Insert nick Quick quote
+Quote Post
 
Start new topic
Replies (1 - 7)
post Apr 3 2024, 14:13:00
Post #2

Правь статус, ####!111
**************
Group: Металариец
Posts: 3,139
Releases: 0
From: д. Гадюкино
On Forums: 9 years 11 months
Thanks: 3129 time(s)
Russian Federation


London, UK -
London, United Kingdom
Go to the top of the page
  Insert nick Quick quote
+Quote Post
post Apr 3 2024, 15:43:04
Post #3

Правь статус, ####!111
**************
Group: Металариец
Posts: 35,634
Releases: 26525
From: Г.Харьков
On Forums: 11 years 11 months
Thanks: 573584 time(s)
Ukraine


ЦИТАТА(Veggr @ Apr 3 2024, 14:13:00) *
London, UK -
London, United Kingdom

про релокацию не слышал? (IMG:style_emoticons/default/bye.gif)
Go to the top of the page
  Insert nick Quick quote
+Quote Post
post Apr 4 2024, 05:06:54
Post #4

i listen to black metal
**************
Group: Металариец
Posts: 4,063
Releases: 150
From: Москва
On Forums: 17 years 4 months
Thanks: 2627 time(s)
Russian Federation


сразу забираю- эти всё могут!!!!


Thanks:
Go to the top of the page
  Insert nick Quick quote
+Quote Post
post Apr 5 2024, 02:59:31
Post #5

Три Литра
***
Group: Завсегдатай
Posts: 217
Releases: 0
On Forums: 9 years 5 months
Thanks: 44 time(s)
Unknown


ЦИТАТА(Samaritianin @ Apr 3 2024, 15:43:04) *
про релокацию не слышал? (IMG:style_emoticons/default/bye.gif)

Ну, так-то Илья давно в Англию переехал... :-)
Go to the top of the page
  Insert nick Quick quote
+Quote Post
post Apr 5 2024, 04:23:29
Post #6

_ - = # Thrashogolic # = - _ ... а давайте поржём все вместе
**************
Group: Металариец
Posts: 22,233
Releases: 4444
From: 404
On Forums: 13 years 10 months
Thanks: 29009 time(s)
Ukraine


ЦИТАТА(Samaritianin @ Apr 3 2024, 17:43:04) *
про релокацию не слышал? (IMG:style_emoticons/default/bye.gif)
Так а оставлять им Russian Federation страну - типа русский мир они взяли с собой?
Go to the top of the page
  Insert nick Quick quote
+Quote Post
post Apr 5 2024, 14:26:00
Post #7

Правь статус, ####!111
**************
Group: Металариец
Posts: 2,451
Releases: 0
On Forums: 15 years 1 month
Thanks: 983 time(s)
Antarctica


Трэша не услышал, с остальным согласен, фолк метал/МДМ с лезгинкой, свежо, неизбито. Но минусы есть: вставки кавказских мотивов очень лаконичны в том смысле, что не содержат осмысленных мелодий, а заполняют пространство между куплетами, к тому же звучат довольно однообразно.


Thanks:
Go to the top of the page
  Insert nick Quick quote
+Quote Post
post Apr 5 2024, 14:49:09
Post #8

_ - = # Thrashogolic # = - _ ... а давайте поржём все вместе
**************
Group: Металариец
Posts: 22,233
Releases: 4444
From: 404
On Forums: 13 years 10 months
Thanks: 29009 time(s)
Ukraine


mittal,
Go to the top of the page
  Insert nick Quick quote
+Quote Post

Reply to this topicStart new topic
2 User(s) are reading this topic (2 Guests and 0 Anonymous Users)
0 Members:

 



- Lo-Fi Version Support form
Copyrights and abuse reports form
Time is now: 23rd April 2024 - 08:51:03